[bittorrent] Matt Flaherty Quartet So Many Roads Brewery Denver, Colorado 6/22/2021 (Schoeps CCM4V'S FOB)

Automated Mailer noreply-bt.e at etree.org
Wed Jun 23 13:17:49 UTC 2021


Band:           Other
Torrent Name:   Matt Flaherty Quartet So Many Roads Brewery Denver, Colorado 6/22/2021 (Schoeps CCM4V'S FOB)
Uploaded by:    zmanatl
DB Link:        
Details:        http://bt.etree.org/details.php?id=612993

Contact the seeder at http://db.etree.org/zmanatl

If the link to this show does not work, it was probably removed for
being non-trade-friendly.

Description / text file:
-------------------------
Matt Flaherty Quartet
So Many Roads Brewery
Denver, Colorado
6/22/2021

Source: Schoeps CCM4V'S>Lunatec V2>Sound Devices 722 (24/44.1)
FOB/DFC/KFC/ZFC/AARP 26' From Stage, 6 1/2' High
DSP: Sound Devices 722>Sound Forge 10.0>CD Wave>flac(16)
ID3 Tagged In Foobar 2000
Recorded By: Z-Man
Seeded By: Z-Man
A Team Dirty South Recording

Disc I 

01 Goin' Down The Road Feelin' Bad
02 Sand
03 Back On The Train
04 ?
05 *I've Got Love
06 Rainbow Connection

* With Happy Birthday Jam

Matt Flaherty - Guitar And Vocals
Fleeb Thomas - Bass And Vocals 
Ben Rafferty - Keyboards And Vocals
Gary Heard - Drums

matt2021-06-22d01t01.flac:567198de7baf96e82811629020cbb38c
matt2021-06-22d01t02.flac:2a23dcbdca841ab3d61fc1d34198b755
matt2021-06-22d01t03.flac:c3b6e48d4466f4048e9ae4e145481751
matt2021-06-22d01t04.flac:d24a43ced866c382a5734f665fd5b655
matt2021-06-22d01t05.flac:406e7ea4e844107767939224b1a19e67
matt2021-06-22d01t06.flac:f9610839e050e4ca9b259842667e356a

  length     expanded size    cdr  WAVE problems  fmt   ratio  filename
     8:16.33       87572060 B   ---   --   ---xx   flac  0.5351  matt2021-06-22d01t01.flac
     8:19.01       88025996 B   ---   --   ---xx   flac  0.5379  matt2021-06-22d01t02.flac
     8:47.60       93103964 B   ---   --   ---xx   flac  0.4713  matt2021-06-22d01t03.flac
     6:48.21       72020636 B   ---   --   ---xx   flac  0.4829  matt2021-06-22d01t04.flac
     8:10.19       86480732 B   ---   --   ---xx   flac  0.4733  matt2021-06-22d01t05.flac
     5:33.25       58800044 B   ---   --   ---xx   flac  0.4405  matt2021-06-22d01t06.flac
    45:55.09      486003432 B                            0.4932  (6 files)




More information about the bittorrent mailing list