[bittorrent] Joe Russo's Almost Dead Westville Music Bowl New Haven, Connecticut 6/20/2021 (Schoeps CCM4V'S )

Automated Mailer noreply-bt.e at etree.org
Mon Jun 21 05:02:09 UTC 2021


Band:           Joe Russo's Almost Dead
Torrent Name:   Joe Russo's Almost Dead Westville Music Bowl New Haven, Connecticut 6/20/2021 (Schoeps CCM4V'S )
Uploaded by:    zmanatl
DB Link:        
Details:        http://bt.etree.org/details.php?id=612972

Contact the seeder at http://db.etree.org/zmanatl

If the link to this show does not work, it was probably removed for
being non-trade-friendly.

Description / text file:
-------------------------
Joe Russo's Almost Dead
Westville Music Bowl
New Haven, Connecticut
6/20/2021

Source: Schoeps CCM4V'S>Lunatec V2>Sound Devices 722 (24/44.1)
BOB/DFC/KFC/ZFC/AARP Clamped To The Rail Above The Soundboard Between Section 108 And 109, 6 1/2' High
DSP: Sound Devices 722>Sound Forge 10.0>CD Wave>flac(16)
ID3 Tagged In Foobar 2000
Recorded By: Z-Man
Seeded By: Z-Man
A Team Dirty South Recording

Disc I 1st Set

01 Horn Procession Through The Stadium >
02 *Aiko-Aiko >
03 *China-Cat Sunflower >
04 *Ophelia 
05 *Operator 
06 *Jam >
07 *Why Don't We Do It In The Road >
08 *Hard To Handle 
09 Casey Jones 
10 Band Introductions

Disc II 2nd Set

01 Alabama Getaway >
02 Jam >
03 #Feel Like A Stranger >
04 Misissippi Half-Step Uptown Toodeloo >
05 @Jam >
06 *Good Lovin'  

Disc III Encore

01 *Let It Rock 
02 *Roadrunner 
03 *^Rag Mama Rag 
04 *Cats Down Under The Stars >
05 *CC Rider
06 Band Introductions
Encore:
07 *The Night They Drove Ol' Dixie Down

* With The Antibalas Horn Section
(Stuart Bogie, Jordan Maclane, Ray Mason, Cocheme, And John Altieri 
)# With With Stuart Bogie On Saxophone
@ With ? On Trumpet
^ With Katie Jacoby On Violin

Joe Russo - Drums And Vocals
Tom Hamilton - Guitar And Vocals
Scott Metzger - Guitar And Vocals
Dave Dreiwitz - Bass
Marco Benevento - Keyboards And Vocals

Jrad2021-06-20d01t01.flac:f63c24e01d7b7406266173e553dd6e40
Jrad2021-06-20d01t02.flac:919e8dd66e87c81f7552f5c3294955bd
Jrad2021-06-20d01t03.flac:b930bed3b03b2c0622cc1f0bfbf58630
Jrad2021-06-20d01t04.flac:aaf4e6245f48fe676911ce84877edb24
Jrad2021-06-20d01t05.flac:343da86573490ffdd108393d5d3dadef
Jrad2021-06-20d01t06.flac:ecc0c022a4ae7e6bb3c947530462ef10
Jrad2021-06-20d01t07.flac:09ba4fab07b1b3effcc8831eae651ada
Jrad2021-06-20d01t08.flac:893ff331a1528fe1381d73b3cd8ebdd2
Jrad2021-06-20d01t09.flac:f89ed7d66715c4c13c3fd2fece3933db
Jrad2021-06-20d01t10.flac:78269020273a8529c55d103e7d2b3513
Jrad2021-06-20d02t01.flac:6f5def171f79004d4868f9a81d44300f
Jrad2021-06-20d02t02.flac:69b81319fccc2403051670c6cbff3f8b
Jrad2021-06-20d02t03.flac:b104b00262c345b4ea9b1b8176502e5d
Jrad2021-06-20d02t04.flac:88f99c6e408c077dcd6ef05aa6ebd1f9
Jrad2021-06-20d02t05.flac:1909d08967cd10f18a8bb803b5ab2d6b
Jrad2021-06-20d02t06.flac:3b7e87e17ba0240ad2ae64dccb904afd
Jrad2021-06-20d03t01.flac:18e5f2d4647984447ce1af3d0ed79eab
Jrad2021-06-20d03t02.flac:f0837521ba209206a9fa160160f91b5b
Jrad2021-06-20d03t03.flac:c22964d10bd9600ddb9a288ed33f58b7
Jrad2021-06-20d03t04.flac:fe9a6e42babd258abf08b89734089c81
Jrad2021-06-20d03t05.flac:1d3addd2bba206a97a87e5e2ded3d188
Jrad2021-06-20d03t06.flac:4565b7233c045e272c3fa8dc79e5dcd7
Jrad2021-06-20d03t07.flac:70b73c0e109d0c44cf342944d2f5e059

 length     expanded size    cdr  WAVE problems  fmt   ratio  filename
     7:02.04       74450252 B   ---   --   ---xx   flac  0.3862  Jrad2021-06-20d01t01.flac
     8:32.40       90410924 B   ---   --   ---xx   flac  0.4992  Jrad2021-06-20d01t02.flac
     6:56.63       73530620 B   ---   --   ---xx   flac  0.5045  Jrad2021-06-20d01t03.flac
     5:04.35       53707964 B   ---   --   ---xx   flac  0.4750  Jrad2021-06-20d01t04.flac
     5:45.31       60930956 B   ---   --   ---xx   flac  0.4627  Jrad2021-06-20d01t05.flac
     7:20.49       77731292 B   ---   --   ---xx   flac  0.4712  Jrad2021-06-20d01t06.flac
     5:09.68       54667580 B   ---   --   ---xx   flac  0.5293  Jrad2021-06-20d01t07.flac
    10:31.54      111435452 B   ---   --   ---xx   flac  0.4486  Jrad2021-06-20d01t08.flac
     6:30.53       68920700 B   ---   --   ---xx   flac  0.5099  Jrad2021-06-20d01t09.flac
     1:09.66       12326876 B   ---   --   ---xx   flac  0.4091  Jrad2021-06-20d01t10.flac
     5:01.06       53110556 B   ---   --   ---xx   flac  0.5214  Jrad2021-06-20d02t01.flac
     2:13.54       23588252 B   ---   --   ---xx   flac  0.3868  Jrad2021-06-20d02t02.flac
    10:09.49      107542892 B   ---   --   ---xx   flac  0.4455  Jrad2021-06-20d02t03.flac
    11:00.39      116515772 B   ---   --   ---xx   flac  0.4150  Jrad2021-06-20d02t04.flac
     7:02.42       74539628 B   ---   --   ---xx   flac  0.4396  Jrad2021-06-20d02t05.flac
    10:14.17      108349628 B   ---   --   ---xx   flac  0.4866  Jrad2021-06-20d02t06.flac
     5:10.56       54815756 B   ---   --   ---xx   flac  0.4730  Jrad2021-06-20d03t01.flac
     7:10.50       75969644 B   ---   --   ---xx   flac  0.4936  Jrad2021-06-20d03t02.flac
     5:44.56       60813356 B   ---   --   ---xx   flac  0.4213  Jrad2021-06-20d03t03.flac
    15:22.14      162673772 B   ---   --   ---xx   flac  0.4609  Jrad2021-06-20d03t04.flac
     4:44.73       50269340 B   ---   --   ---xx   flac  0.5051  Jrad2021-06-20d03t05.flac
     0:44.21        7811036 B   ---   --   ---xx   flac  0.4416  Jrad2021-06-20d03t06.flac
     5:24.18       57195980 B   ---   --   ---xx   flac  0.4583  Jrad2021-06-20d03t07.flac
   154:07.58     1631308228 B                            0.4647  (23 files)





More information about the bittorrent mailing list