[bittorrent] Trey Anastasio 2021-06-19 SPAC Saratoga Springs, NY Schoeps mk4v>nbob actives>naiant PFAs>Sonosax SX-R4+ **1644**

Automated Mailer noreply-bt.e at etree.org
Mon Jun 21 02:09:06 UTC 2021


Band:           Trey Anastasio
Torrent Name:   Trey Anastasio 2021-06-19 SPAC Saratoga Springs, NY Schoeps mk4v>nbob actives>naiant PFAs>Sonosax SX-R4+ **1644**
Uploaded by:    andyjah
DB Link:        
Details:        http://bt.etree.org/details.php?id=612968

Contact the seeder at http://db.etree.org/andyjah

If the link to this show does not work, it was probably removed for
being non-trade-friendly.

Description / text file:
-------------------------
Trey Anastasio
2021-06-19
Saratoga Performing Arts Center
Saratoga Springs, NY

Source: Schoeps mk4v  (70 degrees @ 21cm)>nbob actives>Naiant PFAs>Sonosax SX-R4+

Transfer: Sonosax SX-R4+>sd-xc card>Imac>Audacity(tracking,normalize,fades,limiter)>Sony Soundforge Convrt(resample(izotope,highest settings)/dither(mbit+/ultra, high dither)to 16 bit/44.1k)>XAct(FLAC 8,ffp,fix sbe)

Recorded from balcony left stack sec 8 row jj

Recorded and Transferred by Andy Murray

01 crowd
02 Set Your Soul Free
03 Blaze On
04 I Never Needed You Like This Before
05 Esther
06 Brian and Robert
07 Wolfman’s Brother
08 Divided Sky
09 Driver
10 When the Words Go Away
11 Twist
12 Foam
13 What’s The Use
14 Chalk Dust Torture
15 Sand
16 Pebbles and Marbles
17 Lifeboy
18 Backwards Down the Number Line
19 Limb By Limb
20 Mountains In The Mist
21 Sleep
22 Waste
23 Sleeping Monkey
encore:
24 If I Could
25 Say It To Me S.A.N.T.O.S.

Page McConnell joining Trey for: Mountains in the Mist, Sleep, Waste, Sleeping Monkey, If I could, and Say It To Me S.A.N.T.O.S.
The Rescue Squad Strings joining Trey for: Brian and Robert, Wolfman's Brother, Divided Sky, What’s The Use, Pebbles and Marbles, Lifeboy, If I Could, and Say It to Me S.A.N.T.O.S.
Jeff Tanski joining Trey for: I Never Needed You Like This Before, Esther, Brian and Robert, Wolfman's Brother, Divided Sky, Foam, What's The Use, Sand, Pebbles and Marbles, Lifeboy, and Say It to Me S.A.N.T.O.S.

;flac fingerprints generated by xACT 2.47 on 2021-06-21 01:53:00 +0000

trey2021-06-19.mk4v.sxr4+.1644.s1t01.flac:277b459674da62e2950f600bcfb6ded2
trey2021-06-19.mk4v.sxr4+.1644.s1t02.flac:6b2a7c30829cd5c1c31ba92c6522fb59
trey2021-06-19.mk4v.sxr4+.1644.s1t03.flac:670e62de276025ceb2bbaaed13228abc
trey2021-06-19.mk4v.sxr4+.1644.s1t04.flac:1039cd887166f34c256661c3f75b407b
trey2021-06-19.mk4v.sxr4+.1644.s1t05.flac:da44955aa406018cdfba9bf5a46f4a13
trey2021-06-19.mk4v.sxr4+.1644.s1t06.flac:065c8327938e9a3e49f2670fef4db0ca
trey2021-06-19.mk4v.sxr4+.1644.s1t07.flac:c750e63d611626480f8f2cee92bc8bee
trey2021-06-19.mk4v.sxr4+.1644.s1t08.flac:23c33efa1eb864d6aa04e2f9827b8a7a
trey2021-06-19.mk4v.sxr4+.1644.s1t09.flac:ba9abb5eaf71497773a565c9f20ce81e
trey2021-06-19.mk4v.sxr4+.1644.s1t10.flac:f72c80f4cf9cd4e70ed6a2ba178373eb
trey2021-06-19.mk4v.sxr4+.1644.s1t11.flac:498c142f0979628b1d92359d809bbd73
trey2021-06-19.mk4v.sxr4+.1644.s1t12.flac:1b383854dbccf0f48939304fe66f71eb
trey2021-06-19.mk4v.sxr4+.1644.s1t13.flac:29bfeee94d1bf8f3fd59e22717ce3103
trey2021-06-19.mk4v.sxr4+.1644.s1t14.flac:f722fed8dcdc607ff55c5423d63a767c
trey2021-06-19.mk4v.sxr4+.1644.s1t15.flac:de715263b64884b59b5c1dad7493f2e6
trey2021-06-19.mk4v.sxr4+.1644.s1t16.flac:ca43fdbe62aa04f41ad95922b0f0c8f0
trey2021-06-19.mk4v.sxr4+.1644.s1t17.flac:0c2a0dd52645d9bba5181862923fc272
trey2021-06-19.mk4v.sxr4+.1644.s1t18.flac:49220732274befb9d71b666365003c8b
trey2021-06-19.mk4v.sxr4+.1644.s1t19.flac:6dfa30ce448ce742c87846454bfa0dfd
trey2021-06-19.mk4v.sxr4+.1644.s1t20.flac:bae94fadaec481274c0a6624499129cb
trey2021-06-19.mk4v.sxr4+.1644.s1t21.flac:6c46853f2259d1ac9c92d23e723c1591
trey2021-06-19.mk4v.sxr4+.1644.s1t22.flac:ffc7426a6ef00f834d0190340a341d4e
trey2021-06-19.mk4v.sxr4+.1644.s1t23.flac:f2cd3e91dbc727089ad00e465d3206b2
trey2021-06-19.mk4v.sxr4+.1644.s1t24.flac:756a06695673eafddcbcc808b650ada7
trey2021-06-19.mk4v.sxr4+.1644.s1t25.flac:12dde9d72ab1e87949f464d2615d2d8e
   
 length     expanded size    cdr  WAVE problems  fmt   ratio  filename
     0:41.73        7404140 B   ---   --   -----    wav  1.0000  trey2021-06-19.mk4v.sxr4+.1644.s1t01.wav
     2:59.58       31712060 B   ---   --   -----    wav  1.0000  trey2021-06-19.mk4v.sxr4+.1644.s1t02.wav
     8:46.64       92936972 B   ---   --   -----    wav  1.0000  trey2021-06-19.mk4v.sxr4+.1644.s1t03.wav
     4:33.66       48312476 B   ---   --   -----    wav  1.0000  trey2021-06-19.mk4v.sxr4+.1644.s1t04.wav
     9:30.41      100644476 B   ---   --   -----    wav  1.0000  trey2021-06-19.mk4v.sxr4+.1644.s1t05.wav
     3:52.04       40934252 B   ---   --   -----    wav  1.0000  trey2021-06-19.mk4v.sxr4+.1644.s1t06.wav
     6:59.61       74055116 B   ---   --   -----    wav  1.0000  trey2021-06-19.mk4v.sxr4+.1644.s1t07.wav
    21:55.21      232015436 B   ---   --   -----    wav  1.0000  trey2021-06-19.mk4v.sxr4+.1644.s1t08.wav
     2:20.25       24754844 B   ---   --   -----    wav  1.0000  trey2021-06-19.mk4v.sxr4+.1644.s1t09.wav
     3:17.49       34866092 B   ---   --   -----    wav  1.0000  trey2021-06-19.mk4v.sxr4+.1644.s1t10.wav
     6:15.66       66305276 B   ---   --   -----    wav  1.0000  trey2021-06-19.mk4v.sxr4+.1644.s1t11.wav
     6:45.56       71573756 B   ---   --   -----    wav  1.0000  trey2021-06-19.mk4v.sxr4+.1644.s1t12.wav
     6:54.29       73097852 B   ---   --   -----    wav  1.0000  trey2021-06-19.mk4v.sxr4+.1644.s1t13.wav
     4:34.34       48413612 B   ---   --   -----    wav  1.0000  trey2021-06-19.mk4v.sxr4+.1644.s1t14.wav
     6:39.57       70517708 B   ---   --   -----    wav  1.0000  trey2021-06-19.mk4v.sxr4+.1644.s1t15.wav
     7:43.07       81689708 B   ---   --   -----    wav  1.0000  trey2021-06-19.mk4v.sxr4+.1644.s1t16.wav
     5:48.02       61391948 B   ---   --   -----    wav  1.0000  trey2021-06-19.mk4v.sxr4+.1644.s1t17.wav
     3:15.25       34456844 B   ---   --   -----    wav  1.0000  trey2021-06-19.mk4v.sxr4+.1644.s1t18.wav
     5:02.38       53362220 B   ---   --   -----    wav  1.0000  trey2021-06-19.mk4v.sxr4+.1644.s1t19.wav
     7:27.72       79020188 B   ---   --   -----    wav  1.0000  trey2021-06-19.mk4v.sxr4+.1644.s1t20.wav
     2:29.68       26443580 B   ---   --   -----    wav  1.0000  trey2021-06-19.mk4v.sxr4+.1644.s1t21.wav
     8:02.31       85097756 B   ---   --   -----    wav  1.0000  trey2021-06-19.mk4v.sxr4+.1644.s1t22.wav
     6:18.50       66796844 B   ---   --   -----    wav  1.0000  trey2021-06-19.mk4v.sxr4+.1644.s1t23.wav
     6:14.30       66044204 B   ---   --   -----    wav  1.0000  trey2021-06-19.mk4v.sxr4+.1644.s1t24.wav
     5:35.26       59155196 B   ---   --   -----    wav  1.0000  trey2021-06-19.mk4v.sxr4+.1644.s1t25.wav
   154:06.03     1631002556 B                            1.0000  (25 files)




More information about the bittorrent mailing list