[bittorrent] Trey Anastasio 2021-06-19 SPAC Saratoga Springs, NY Schoeps mk41v>kc5>cmc6>Sonosax SX-R4+ **1644**

Automated Mailer noreply-bt.e at etree.org
Mon Jun 21 00:42:43 UTC 2021


Band:           Trey Anastasio
Torrent Name:   Trey Anastasio 2021-06-19 SPAC Saratoga Springs, NY Schoeps mk41v>kc5>cmc6>Sonosax SX-R4+ **1644**
Uploaded by:    andyjah
DB Link:        
Details:        http://bt.etree.org/details.php?id=612965

Contact the seeder at http://db.etree.org/andyjah

If the link to this show does not work, it was probably removed for
being non-trade-friendly.

Description / text file:
-------------------------
Trey Anastasio
2021-06-19
Saratoga Performing Arts Center
Saratoga Springs, NY

Source: Schoeps mk41v  (70 degrees @ 21cm)>kc5>cmc6>Sonosax SX-R4+

Transfer: Sonosax SX-R4+>sd-xc card>Imac>Audacity(tracking,normalize,fades,limiter)>Sony Soundforge Convrt(resample(izotope,highest settings)/dither(mbit+/ultra, high dither)to 16 bit/44.1k)>XAct(FLAC 8,ffp,fix sbe)

Recorded from balcony left stack sec 8 row jj

Recorded and Transferred by Andy Murray

01 crowd
02 Set Your Soul Free
03 Blaze On
04 I Never Needed You Like This Before
05 Esther
06 Brian and Robert
07 Wolfman’s Brother
08 Divided Sky
09 Driver
10 When the Words Go Away
11 Twist
12 Foam
13 What’s The Use
14 Chalk Dust Torture
15 Sand
16 Pebbles and Marbles
17 Lifeboy
18 Backwards Down the Number Line
19 Limb By Limb
20 Mountains In The Mist
21 Sleep
22 Waste
23 Sleeping Monkey
encore:
24 If I Could
25 Say It To Me S.A.N.T.O.S.

Page McConnell joining Trey for: Mountains in the Mist, Sleep, Waste, Sleeping Monkey, If I could, and Say It To Me S.A.N.T.O.S.
The Rescue Squad Strings joining Trey for: Brian and Robert, Wolfman's Brother, Divided Sky, What’s The Use, Pebbles and Marbles, Lifeboy, If I Could, and Say It to Me S.A.N.T.O.S.
Jeff Tanski joining Trey for: I Never Needed You Like This Before, Esther, Brian and Robert, Wolfman's Brother, Divided Sky, Foam, What's The Use, Sand, Pebbles and Marbles, Lifeboy, and Say It to Me S.A.N.T.O.S.

;flac fingerprints generated by xACT 2.47 on 2021-06-21 00:31:11 +0000
trey2021-06-19.mk41v.sxr4+.1644.s1t01.flac:5de5b3adb731eda86ab4e55a51016af1
trey2021-06-19.mk41v.sxr4+.1644.s1t02.flac:2843453df30065c8c6bd2f42bfaec455
trey2021-06-19.mk41v.sxr4+.1644.s1t03.flac:b1a8ce6c77399b442765ae6cb10f7201
trey2021-06-19.mk41v.sxr4+.1644.s1t04.flac:f3967f509adb97dd559d62fb69309177
trey2021-06-19.mk41v.sxr4+.1644.s1t05.flac:ba5812155af55d5b9a865e613332112f
trey2021-06-19.mk41v.sxr4+.1644.s1t06.flac:59211721b9a07670b8ee1e66fb73876d
trey2021-06-19.mk41v.sxr4+.1644.s1t07.flac:7d30b0b62604125023c6e1118e3e1274
trey2021-06-19.mk41v.sxr4+.1644.s1t08.flac:e5d5958df0879551eea6a2bbcc648081
trey2021-06-19.mk41v.sxr4+.1644.s1t09.flac:4ce4e6be70dddfc6999df63235970004
trey2021-06-19.mk41v.sxr4+.1644.s1t10.flac:df699682d44c528b34b662a082fbf03e
trey2021-06-19.mk41v.sxr4+.1644.s1t11.flac:922cda59b6b12aaf332a4230fe63b701
trey2021-06-19.mk41v.sxr4+.1644.s1t12.flac:984040b91f426d3af93ad26bc1f3c031
trey2021-06-19.mk41v.sxr4+.1644.s1t13.flac:b3bf847af86d6a41deb2c59711ef6c19
trey2021-06-19.mk41v.sxr4+.1644.s1t14.flac:bfb61e22b034dcadb3f2377e0f79cb68
trey2021-06-19.mk41v.sxr4+.1644.s1t15.flac:00f12bf1156478602fa3e0ecc888a6b8
trey2021-06-19.mk41v.sxr4+.1644.s1t16.flac:e09ff574452f755de41a9fd31df62a4e
trey2021-06-19.mk41v.sxr4+.1644.s1t17.flac:e5d663e1852866b2b3ab2dee2b26ac40
trey2021-06-19.mk41v.sxr4+.1644.s1t18.flac:9bf19b560fb1ecf3a60b683782598694
trey2021-06-19.mk41v.sxr4+.1644.s1t19.flac:e7ba7967764513b29b1ac80dfaca84ce
trey2021-06-19.mk41v.sxr4+.1644.s1t20.flac:4e3b885c599dd8e75e32c64de6f93f68
trey2021-06-19.mk41v.sxr4+.1644.s1t21.flac:562f2a7ed8c975d122abff6a25d2d6cd
trey2021-06-19.mk41v.sxr4+.1644.s1t22.flac:915c06fd50ceace1b7284bd65d055354
trey2021-06-19.mk41v.sxr4+.1644.s1t23.flac:f1a948310f3c3b7b6d82daaa136cf7ff
trey2021-06-19.mk41v.sxr4+.1644.s1t24.flac:9cac882dde43c84fa4dc71b0f801a89a
trey2021-06-19.mk41v.sxr4+.1644.s1t25.flac:063552fec7d3cff63822a942e8e3b103
  
  length     expanded size    cdr  WAVE problems  fmt   ratio  filename
     0:41.73        7404140 B   ---   --   -----    wav  1.0000  trey2021-06-19.mk41v.sxr4+.1644.s1t01.wav
     2:59.58       31712060 B   ---   --   -----    wav  1.0000  trey2021-06-19.mk41v.sxr4+.1644.s1t02.wav
     8:46.64       92936972 B   ---   --   -----    wav  1.0000  trey2021-06-19.mk41v.sxr4+.1644.s1t03.wav
     4:33.66       48312476 B   ---   --   -----    wav  1.0000  trey2021-06-19.mk41v.sxr4+.1644.s1t04.wav
     9:30.41      100644476 B   ---   --   -----    wav  1.0000  trey2021-06-19.mk41v.sxr4+.1644.s1t05.wav
     3:52.04       40934252 B   ---   --   -----    wav  1.0000  trey2021-06-19.mk41v.sxr4+.1644.s1t06.wav
     6:59.61       74055116 B   ---   --   -----    wav  1.0000  trey2021-06-19.mk41v.sxr4+.1644.s1t07.wav
    21:55.21      232015436 B   ---   --   -----    wav  1.0000  trey2021-06-19.mk41v.sxr4+.1644.s1t08.wav
     2:20.25       24754844 B   ---   --   -----    wav  1.0000  trey2021-06-19.mk41v.sxr4+.1644.s1t09.wav
     3:17.49       34866092 B   ---   --   -----    wav  1.0000  trey2021-06-19.mk41v.sxr4+.1644.s1t10.wav
     6:15.66       66305276 B   ---   --   -----    wav  1.0000  trey2021-06-19.mk41v.sxr4+.1644.s1t11.wav
     6:45.56       71573756 B   ---   --   -----    wav  1.0000  trey2021-06-19.mk41v.sxr4+.1644.s1t12.wav
     6:54.29       73097852 B   ---   --   -----    wav  1.0000  trey2021-06-19.mk41v.sxr4+.1644.s1t13.wav
     4:34.34       48413612 B   ---   --   -----    wav  1.0000  trey2021-06-19.mk41v.sxr4+.1644.s1t14.wav
     6:39.57       70517708 B   ---   --   -----    wav  1.0000  trey2021-06-19.mk41v.sxr4+.1644.s1t15.wav
     7:43.07       81689708 B   ---   --   -----    wav  1.0000  trey2021-06-19.mk41v.sxr4+.1644.s1t16.wav
     5:48.02       61391948 B   ---   --   -----    wav  1.0000  trey2021-06-19.mk41v.sxr4+.1644.s1t17.wav
     3:15.25       34456844 B   ---   --   -----    wav  1.0000  trey2021-06-19.mk41v.sxr4+.1644.s1t18.wav
     5:02.38       53362220 B   ---   --   -----    wav  1.0000  trey2021-06-19.mk41v.sxr4+.1644.s1t19.wav
     7:27.72       79020188 B   ---   --   -----    wav  1.0000  trey2021-06-19.mk41v.sxr4+.1644.s1t20.wav
     2:29.68       26443580 B   ---   --   -----    wav  1.0000  trey2021-06-19.mk41v.sxr4+.1644.s1t21.wav
     8:02.31       85097756 B   ---   --   -----    wav  1.0000  trey2021-06-19.mk41v.sxr4+.1644.s1t22.wav
     6:18.50       66796844 B   ---   --   -----    wav  1.0000  trey2021-06-19.mk41v.sxr4+.1644.s1t23.wav
     6:14.30       66044204 B   ---   --   -----    wav  1.0000  trey2021-06-19.mk41v.sxr4+.1644.s1t24.wav
     5:35.26       59155196 B   ---   --   -----    wav  1.0000  trey2021-06-19.mk41v.sxr4+.1644.s1t25.wav
   154:06.03     1631002556 B                            1.0000  (25 files)





More information about the bittorrent mailing list