[bittorrent] Trey Anastasio 2021-06-18 SPAC Saratoga Springs, NY Schoeps mk4v>nbob actives>naiant PFAs>Sonosax SX-R4+ **1644**+

Automated Mailer noreply-bt.e at etree.org
Sun Jun 20 19:24:36 UTC 2021


Band:           Trey Anastasio
Torrent Name:   Trey Anastasio 2021-06-18 SPAC Saratoga Springs, NY Schoeps mk4v>nbob actives>naiant PFAs>Sonosax SX-R4+ **1644**+
Uploaded by:    andyjah
DB Link:        
Details:        http://bt.etree.org/details.php?id=612959

Contact the seeder at http://db.etree.org/andyjah

If the link to this show does not work, it was probably removed for
being non-trade-friendly.

Description / text file:
-------------------------
Trey Anastasio
2021-06-18
Saratoga Performing Arts Center
Saratoga Springs, NY

Source: Schoeps mk4v  (70 degrees @ 21cm)>nbob actives>naiant pfas>Sonosax SX-R4+

Transfer: Sonosax SX-R4+>sd-xc card>Imac>Audacity(tracking,normalize,fades,limiter)>Sony Soundforge Convrt(resample(izotope,highest settings)/dither(mbit+/ultra, high dither)to 16 bit/44.1k)>XAct(FLAC 8,ffp,fix sbe)

Recorded from OTS behind soundboard

Recorded and Transferred by Andy Murray

01 Wilson
02 Alive Again
03 Stash 
04 Water in the Sky 
05 Lost in the Pack
06 Back on the Train
07 Sample in a Jar
08 Sigma Oasis
09 Theme from the Bottom
10 Shade
11 Fluffhead 
12 Mercury
13 The Inlaw Josie Wales
14 Turtle in the Clouds
15 Maze
16 Snowflakes in the Sand
17 Everything’s Right
18 Split Open And Melt
19 Joy 
20 Harry Hood
21 encore break
22 More
23 First Tube

The Rescue Squad Strings joining Trey for: Stash, Water in the Sky, Fluffhead, Mercury, The In Law Josie Wales, Joy Harry Hood, and First Tube
Jeff Tanski on piano joining Trey for: Stash, Water In The Sky, Shade, Fluffhead, Mercury, The In Law Josie Wales, Split Open And Melt, Joy, Harry Hood, and First Tube

Alive Again last time played acoustic: 5/22/02
Stash (Acoustic Debut)
Fluffhead (w/ Strings Debut)
Mercury (w/ Strings Debut)
Split Open And Melt (Acoustic Debut)
First Tube (Acoustic Debut)

;flac fingerprints generated by xACT 2.47 on 2021-06-20 19:04:09 +0000
trey2021-06-18.mk4v.sxr4+.1644.s1t01.flac:51d006366f7d864e8e80b8c6eb613b2e
trey2021-06-18.mk4v.sxr4+.1644.s1t02.flac:aea8efca6218069f8eef195dff125583
trey2021-06-18.mk4v.sxr4+.1644.s1t03.flac:44a97ec4e4b94af0eadc69ca214cdd70
trey2021-06-18.mk4v.sxr4+.1644.s1t04.flac:2a8094544401d5ed7623597db3a6a835
trey2021-06-18.mk4v.sxr4+.1644.s1t05.flac:30c276885ea48afa8b2d834ba775415b
trey2021-06-18.mk4v.sxr4+.1644.s1t06.flac:0c6cdf5cd906ea1f1f4230de70daf933
trey2021-06-18.mk4v.sxr4+.1644.s1t07.flac:3429d106bb3190d5833c4881bce6da8d
trey2021-06-18.mk4v.sxr4+.1644.s1t08.flac:aead4c0d880c529e456cb93dae25ed32
trey2021-06-18.mk4v.sxr4+.1644.s1t09.flac:b8c09e533ff99e70fa297dc60c2eb2c8
trey2021-06-18.mk4v.sxr4+.1644.s1t10.flac:63e19661e4103416182002d72383a1c0
trey2021-06-18.mk4v.sxr4+.1644.s1t11.flac:e024e094f166a51b4e84a1917ad63623
trey2021-06-18.mk4v.sxr4+.1644.s1t12.flac:a904e7722ab053cbd6fbe10ffac204d6
trey2021-06-18.mk4v.sxr4+.1644.s1t13.flac:ec2334d3f39dfc8ede0e055f92925d0a
trey2021-06-18.mk4v.sxr4+.1644.s1t14.flac:4e59fe2c093bdcd4ddaa34254829f0a9
trey2021-06-18.mk4v.sxr4+.1644.s1t15.flac:162e47175d5bdc9a4d80d1a7f05174e4
trey2021-06-18.mk4v.sxr4+.1644.s1t16.flac:97dc12a220f8cd26166dcd704a4abd85
trey2021-06-18.mk4v.sxr4+.1644.s1t17.flac:fc18ccacff13ab728aed645b9538be06
trey2021-06-18.mk4v.sxr4+.1644.s1t18.flac:0bcb4fcf2f1316b664480f0ae0619a47
trey2021-06-18.mk4v.sxr4+.1644.s1t19.flac:122c95757f27dc5dd2d01910c1a8f08d
trey2021-06-18.mk4v.sxr4+.1644.s1t20.flac:bd510651531d974cbcb3f9d71ec2093c
trey2021-06-18.mk4v.sxr4+.1644.s1t21.flac:62c81c4ba98a45cdcf1054b73a7407e0
trey2021-06-18.mk4v.sxr4+.1644.s1t22.flac:8808a9edb8fe7198772b5c6c63cb9d1e
trey2021-06-18.mk4v.sxr4+.1644.s1t23.flac:38e8648584fefcccd0862822087f254b
  
  length     expanded size    cdr  WAVE problems  fmt   ratio  filename
     3:55.72       41623388 B   ---   --   -----    wav  1.0000  trey2021-06-18.mk4v.sxr4+.1644.s1t01.wav
     3:33.01       37575596 B   ---   --   -----    wav  1.0000  trey2021-06-18.mk4v.sxr4+.1644.s1t02.wav
     9:57.44      105414332 B   ---   --   -----    wav  1.0000  trey2021-06-18.mk4v.sxr4+.1644.s1t03.wav
     3:40.72       38977388 B   ---   --   -----    wav  1.0000  trey2021-06-18.mk4v.sxr4+.1644.s1t04.wav
     6:34.63       69649820 B   ---   --   -----    wav  1.0000  trey2021-06-18.mk4v.sxr4+.1644.s1t05.wav
     3:11.60       33833564 B   ---   --   -----    wav  1.0000  trey2021-06-18.mk4v.sxr4+.1644.s1t06.wav
     3:13.69       34207532 B   ---   --   -----    wav  1.0000  trey2021-06-18.mk4v.sxr4+.1644.s1t07.wav
     7:15.01       76736396 B   ---   --   -----    wav  1.0000  trey2021-06-18.mk4v.sxr4+.1644.s1t08.wav
     7:04.48       74906540 B   ---   --   -----    wav  1.0000  trey2021-06-18.mk4v.sxr4+.1644.s1t09.wav
     5:06.34       54058412 B   ---   --   -----    wav  1.0000  trey2021-06-18.mk4v.sxr4+.1644.s1t10.wav
    15:54.47      168396188 B   ---   --   -----    wav  1.0000  trey2021-06-18.mk4v.sxr4+.1644.s1t11.wav
     8:22.36       88637516 B   ---   --   -----    wav  1.0000  trey2021-06-18.mk4v.sxr4+.1644.s1t12.wav
     3:25.20       36209084 B   ---   --   -----    wav  1.0000  trey2021-06-18.mk4v.sxr4+.1644.s1t13.wav
     4:15.61       45125516 B   ---   --   -----    wav  1.0000  trey2021-06-18.mk4v.sxr4+.1644.s1t14.wav
     4:00.47       42446588 B   ---   --   -----    wav  1.0000  trey2021-06-18.mk4v.sxr4+.1644.s1t15.wav
     4:47.21       50676236 B   ---   --   -----    wav  1.0000  trey2021-06-18.mk4v.sxr4+.1644.s1t16.wav
    10:08.20      107298284 B   ---   --   -----    wav  1.0000  trey2021-06-18.mk4v.sxr4+.1644.s1t17.wav
     9:15.31       97974956 B   ---   --   -----    wav  1.0000  trey2021-06-18.mk4v.sxr4+.1644.s1t18.wav
     6:24.47       67848188 B   ---   --   -----    wav  1.0000  trey2021-06-18.mk4v.sxr4+.1644.s1t19.wav
     9:30.07      100564508 B   ---   --   -----    wav  1.0000  trey2021-06-18.mk4v.sxr4+.1644.s1t20.wav
     2:37.74       27868892 B   ---   --   -----    wav  1.0000  trey2021-06-18.mk4v.sxr4+.1644.s1t21.wav
     4:00.00       42336044 B   ---   --   -----    wav  1.0000  trey2021-06-18.mk4v.sxr4+.1644.s1t22.wav
     8:38.32       91450508 B   ---   --   -----    wav  1.0000  trey2021-06-18.mk4v.sxr4+.1644.s1t23.wav
   144:55.07     1533815476 B                            1.0000  (23 files)





More information about the bittorrent mailing list