[bittorrent] Staxville The Porch Southern Fare And Juke Joint Medford, Massachusetts 6/17/2021 (Schoeps CCM4V'S FOB)

Automated Mailer noreply-bt.e at etree.org
Sun Jun 20 13:43:30 UTC 2021


Band:           Other
Torrent Name:   Staxville The Porch Southern Fare And Juke Joint Medford, Massachusetts 6/17/2021 (Schoeps CCM4V'S FOB)
Uploaded by:    zmanatl
DB Link:        
Details:        http://bt.etree.org/details.php?id=612953

Contact the seeder at http://db.etree.org/zmanatl

If the link to this show does not work, it was probably removed for
being non-trade-friendly.

Description / text file:
-------------------------
Staxville
The Porch Southern Fare And Juke Joint
Medford, Massachusetts
6/17/2021

Source: Schoeps CCM4V'S>Lunatec V2>Sound Devices 722 (24/44.1)
FOB/DFC/KFC/ZFC/AARP 9' From Stage, 6 1/2' High
DSP: Sound Devices 722>Sound Forge 10.0>CD Wave>flac(16)
ID3 Tagged In Foobar 2000
Recorded By: Z-Man
Seeded By: Z-Man
A Team Dirty South Recording

Disc I 

01 Green Onions
02 ?
03 Love Me Like You
04 Till Your Well Runs Dry
05 Band Introductions
06 How Long Must I Wait For You
07 The BBQ Song
08 Born Under A Bad Sign
09 Try A Little Tendernes

Johnny Trama - Guitar 
Donnie Wolfe - Organ
Jesse Dee - Vocals And Percussion
Dean Johnston - Drums

staxville2021-06-17d01t01.flac:485b41473d8773a0edb4cd08202ef68a
staxville2021-06-17d01t02.flac:347ae26379154018729e21a9522a7064
staxville2021-06-17d01t03.flac:896a64c5b784728acbc1c88bc7d9a3a8
staxville2021-06-17d01t04.flac:5ddf1ebe583f6317b179814f3b1e07aa
staxville2021-06-17d01t05.flac:4e114e979b2b90dbf3de796cec6db931
staxville2021-06-17d01t06.flac:2bfd096a59c03dd30623c4ea63f8c9f8
staxville2021-06-17d01t07.flac:c355967fa7fea9ea7e073d6618ed87ea
staxville2021-06-17d01t08.flac:c774ab4a9868c9406c0ec4c54bd1a46f
staxville2021-06-17d01t09.flac:f64eae1b83a062887936753a61845b71

 length     expanded size    cdr  WAVE problems  fmt   ratio  filename
     6:09.18       65133980 B   ---   --   ---xx   flac  0.4737  staxville2021-06-17d01t01.flac
     6:14.57       66107708 B   ---   --   ---xx   flac  0.4641  staxville2021-06-17d01t02.flac
     6:23.48       67674140 B   ---   --   ---xx   flac  0.5235  staxville2021-06-17d01t03.flac
     6:46.16       71656076 B   ---   --   ---xx   flac  0.4773  staxville2021-06-17d01t04.flac
     0:55.36        9786716 B   ---   --   ---xx   flac  0.3292  staxville2021-06-17d01t05.flac
     5:37.42       59545628 B   ---   --   ---xx   flac  0.5326  staxville2021-06-17d01t06.flac
     4:30.62       47773868 B   ---   --   ---xx   flac  0.5022  staxville2021-06-17d01t07.flac
     5:43.50       60622844 B   ---   --   ---xx   flac  0.5548  staxville2021-06-17d01t08.flac
     6:10.58       65404460 B   ---   --   ---xx   flac  0.4793  staxville2021-06-17d01t09.flac
    48:32.12      513705420 B                            0.4965  (9 files)




More information about the bittorrent mailing list