[bittorrent] Joe Russo's Almost Dead Westville Music Bowl New Haven, Connecticut 6/19/2021 (Schoeps CCM4V'S)

Automated Mailer noreply-bt.e at etree.org
Sun Jun 20 06:32:54 UTC 2021


Band:           Joe Russo's Almost Dead
Torrent Name:   Joe Russo's Almost Dead Westville Music Bowl New Haven, Connecticut 6/19/2021 (Schoeps CCM4V'S)
Uploaded by:    zmanatl
DB Link:        
Details:        http://bt.etree.org/details.php?id=612951

Contact the seeder at http://db.etree.org/zmanatl

If the link to this show does not work, it was probably removed for
being non-trade-friendly.

Description / text file:
-------------------------
Joe Russo's Almost Dead
Westville Music Bowl
New Haven, Connecticut
6/19/2021

Source: Schoeps CCM4V'S>Lunatec V2>Sound Devices 722 (24/44.1)
BOB/DFC/KFC/ZFC/AARP Clamped To The Rail Above The Soundboard Between Section 108 And 109, 6 1/2' High
DSP: Sound Devices 722>Sound Forge 10.0>CD Wave>flac(16)
ID3 Tagged In Foobar 2000
Recorded By: Z-Man
Seeded By: Z-Man
A Team Dirty South Recording

Disc I 1st Set

01 They Love Each Other >
02 Gonesville >
03 Cumberland Blues 
04 Row Jimmy
05 Mr. Charlie >
06 Viola Lee Blues >
07 Brown-Eyed Women 
08 Band Introductions

Disc II 2nd Set

01 Here Comes Sunshine >
02 Uncle John's Band >
03 Alligator >
04 Women Are Smarter
05 In Memory Of Elizabeth Reed 
06 Peggy-o
07 Band Introductions

Disc III Encore

01 Brother Esau

Joe Russo - Drums And Vocals
Tom Hamilton - Guitar And Vocals
Scott Metzger - Guitar And Vocals
Dave Dreiwitz - Bass
Marco Benevento - Keyboards And Vocals

Jrad2021-06-19d01t01.flac:8d3799325569242afa1220e4d489e038
Jrad2021-06-19d01t02.flac:c8d069b5756b26f56f3710d67e86ccef
Jrad2021-06-19d01t03.flac:9e3913b9ea95d7f9f5a128fd781d6034
Jrad2021-06-19d01t04.flac:cb47469f5eab8a5d7a34858f03f63c82
Jrad2021-06-19d01t05.flac:7aa56a107ba33d1053b7d2b05488af52
Jrad2021-06-19d01t06.flac:bc8fcd49d36e4a6296ede8221f722365
Jrad2021-06-19d01t07.flac:4f6a8a8078330a64e331e06592d3d91f
Jrad2021-06-19d01t08.flac:fb053ad307ca18b8ae563bdc8553c1eb
Jrad2021-06-19d02t01.flac:f15f5e116248e785bfe15afd2d36aeb2
Jrad2021-06-19d02t02.flac:26cd67d90e99b11b6756f445293baac2
Jrad2021-06-19d02t03.flac:deb0e3c5c3b02ed7fdbc44fa122a68c4
Jrad2021-06-19d02t04.flac:827560608182c33ed1e9546d098862b2
Jrad2021-06-19d02t05.flac:bb3a29bda36e2241b93e27c88c951da3
Jrad2021-06-19d02t06.flac:4fb9e11d7d2d8d1aefbdfab6c2d285ac
Jrad2021-06-19d02t07.flac:03277c5f9628caa9b03719817f154e8e
Jrad2021-06-19d03t01.flac:1fae2924eca64d306ab56502154f3f32

 length     expanded size    cdr  WAVE problems  fmt   ratio  filename
    10:01.54      106143452 B   ---   --   ---xx   flac  0.4746  Jrad2021-06-19d01t01.flac
    10:32.51      111604796 B   ---   --   ---xx   flac  0.4604  Jrad2021-06-19d01t02.flac
    12:05.28      127955900 B   ---   --   ---xx   flac  0.4788  Jrad2021-06-19d01t03.flac
    13:24.20      141872684 B   ---   --   ---xx   flac  0.4484  Jrad2021-06-19d01t04.flac
     5:58.02       63155948 B   ---   --   ---xx   flac  0.5008  Jrad2021-06-19d01t05.flac
     9:53.41      104701676 B   ---   --   ---xx   flac  0.5206  Jrad2021-06-19d01t06.flac
     8:23.01       88731596 B   ---   --   ---xx   flac  0.5170  Jrad2021-06-19d01t07.flac
     1:01.62       10906268 B   ---   --   ---xx   flac  0.4031  Jrad2021-06-19d01t08.flac
    19:35.47      207380588 B   ---   --   ---xx   flac  0.4565  Jrad2021-06-19d02t01.flac
    16:56.03      179229500 B   ---   --   ---xx   flac  0.4657  Jrad2021-06-19d02t02.flac
     8:50.61       93635516 B   ---   --   ---xx   flac  0.4698  Jrad2021-06-19d02t03.flac
     8:18.22       87898988 B   ---   --   ---xx   flac  0.4695  Jrad2021-06-19d02t04.flac
    15:38.35      165545564 B   ---   --   ---xx   flac  0.4777  Jrad2021-06-19d02t05.flac
     9:45.69      103356332 B   ---   --   ---xx   flac  0.3024  Jrad2021-06-19d02t06.flac
     0:23.15        4092524 B   ---   --   ---xx   flac  0.4384  Jrad2021-06-19d02t07.flac
     7:43.24       81729692 B   ---   --   ---xx   flac  0.4830  Jrad2021-06-19d03t01.flac
   158:32.10     1677941024 B                            0.4637  (16 files)





More information about the bittorrent mailing list