[bittorrent] Joe Russo's Almost Dead Westville Music Bowl New Haven, Connecticut 6/18/2021 (Schoeps CCM4V'S)

Automated Mailer noreply-bt.e at etree.org
Sat Jun 19 13:03:16 UTC 2021


Band:           Joe Russo's Almost Dead
Torrent Name:   Joe Russo's Almost Dead Westville Music Bowl New Haven, Connecticut 6/18/2021 (Schoeps CCM4V'S)
Uploaded by:    zmanatl
DB Link:        
Details:        http://bt.etree.org/details.php?id=612947

Contact the seeder at http://db.etree.org/zmanatl

If the link to this show does not work, it was probably removed for
being non-trade-friendly.

Description / text file:
-------------------------
Joe Russo's Almost Dead
Westville Music Bowl
New Haven, Connecticut
6/18/2021

Source: Schoeps CCM4V'S>Lunatec V2>Sound Devices 722 (24/44.1)
BOB/DFC/KFC/ZFC/AARP Clamped To The Rail Above The Soundboard Between Section 108 And 109, 6 1/2' High
DSP: Sound Devices 722>Sound Forge 10.0>CD Wave>flac(16)
ID3 Tagged In Foobar 2000
Recorded By: Z-Man
Seeded By: Z-Man
A Team Dirty South Recording

Disc I 1st Set

01 New Speedway Boogie >
02 Jam >
03 Let It Grow
04 Black Muddy River 
05 All Along The Watchtower >
06 *Greatest Story Ever Told 

Disc II 2nd Set

01 Atlantic City 
02 Tell Me Mama >
03 Big River

Disc III 2nd Set Con't

01 Tennessee Jed >
02 #Jam >
03 Cryptical Envelopment >
04 JCrazy Fingers >
05 The Other One >
06 Stella Blue 
07 Thanks/Band Introductions 
Encore:
08 Warewolves Of London
09 Band Introductions/Outro

* With Dear Prudence Jam
# With St. Stephen Teases

Joe Russo - Drums And Vocals
Tom Hamilton - Guitar And Vocals
Scott Metzger  Guitar And Vocals
Dave Dreiwitz  Bass
Marco Benevento - Keyboard And Vocals

Jrad2021-06-18d01t01.flac:35d5ad566f8bdbc0efc93027b0f2c875
Jrad2021-06-18d01t02.flac:bba4d86ebb2c01b120c1d4077cdb44ac
Jrad2021-06-18d01t03.flac:56e78a119d99511a9a692bbecf061815
Jrad2021-06-18d01t04.flac:a171d624d8f46cfa7d4a6edbf896059f
Jrad2021-06-18d01t05.flac:8f62b214ca519650ecd21b91e0e2e42a
Jrad2021-06-18d01t06.flac:8cdf7dbada2cfa9a6fc50e4354155520
Jrad2021-06-18d02t01.flac:628302c75b7cf33a41607f99a5047f12
Jrad2021-06-18d02t02.flac:75fc45fae29f43f682e0e5cc6dac1a83
Jrad2021-06-18d02t03.flac:dbc9565a17d55d950480a6077cb6f78d
Jrad2021-06-18d03t01.flac:460156241857d769a65974721de1fc74
Jrad2021-06-18d03t02.flac:41a8d551010d4820b77ec5175de4339e
Jrad2021-06-18d03t03.flac:f7720a00e3464ffce39f08e509f903d5
Jrad2021-06-18d03t04.flac:1d1d9ba36e3a4f3c80ff8c61a4738fb3
Jrad2021-06-18d03t05.flac:0ab785509e0173d5c6c2a294ecebe400
Jrad2021-06-18d03t06.flac:06b890941b6b76b9a400316fd72acb9c
Jrad2021-06-18d03t07.flac:f16b7be322afaaa956c0a7ea8c3eaafd
Jrad2021-06-18d03t08.flac:1fb3253a3b66d2402f0f0f1be2bcbf39
Jrad2021-06-18d03t09.flac:8d38cabca24d210e6bf88426990ee35b

 length     expanded size    cdr  WAVE problems  fmt   ratio  filename
    17:24.24      184218092 B   ---   --   ---xx   flac  0.4124  Jrad2021-06-18d01t01.flac
     5:50.36       61824716 B   ---   --   ---xx   flac  0.3774  Jrad2021-06-18d01t02.flac
    17:06.03      180993500 B   ---   --   ---xx   flac  0.4384  Jrad2021-06-18d01t03.flac
     7:15.18       76776380 B   ---   --   ---xx   flac  0.3889  Jrad2021-06-18d01t04.flac
    10:52.68      115172780 B   ---   --   ---xx   flac  0.4439  Jrad2021-06-18d01t05.flac
    16:47.32      177710108 B   ---   --   ---xx   flac  0.4282  Jrad2021-06-18d01t06.flac
     9:48.59      103862012 B   ---   --   ---xx   flac  0.4448  Jrad2021-06-18d02t01.flac
    12:07.14      128275772 B   ---   --   ---xx   flac  0.4913  Jrad2021-06-18d02t02.flac
     5:43.17       60545228 B   ---   --   ---xx   flac  0.4739  Jrad2021-06-18d02t03.flac
    15:31.28      164294300 B   ---   --   ---xx   flac  0.4374  Jrad2021-06-18d03t01.flac
     4:08.69       43909532 B   ---   --   ---xx   flac  0.3801  Jrad2021-06-18d03t02.flac
     5:34.29       58985852 B   ---   --   ---xx   flac  0.4202  Jrad2021-06-18d03t03.flac
    11:59.62      126977468 B   ---   --   ---xx   flac  0.4486  Jrad2021-06-18d03t04.flac
    13:21.08      141315260 B   ---   --   ---xx   flac  0.4626  Jrad2021-06-18d03t05.flac
    11:27.54      121313852 B   ---   --   ---xx   flac  0.3624  Jrad2021-06-18d03t06.flac
     0:34.68        6157580 B   ---   --   ---xx   flac  0.3982  Jrad2021-06-18d03t07.flac
     6:39.72       70552988 B   ---   --   ---xx   flac  0.5023  Jrad2021-06-18d03t08.flac
     0:59.10       10431164 B   ---   --   ---xx   flac  0.4180  Jrad2021-06-18d03t09.flac
   173:12.71     1833316584 B                            0.4339  (18 files)







More information about the bittorrent mailing list