[bittorrent] Toni Lynn Washington And Friends Monotomy Grill Arlington, Massachusetts 6/17/2021 (Schoeps CCM4V'S FOB)

Automated Mailer noreply-bt.e at etree.org
Fri Jun 18 12:03:47 UTC 2021


Band:           Other
Torrent Name:   Toni Lynn Washington And Friends Monotomy Grill Arlington, Massachusetts 6/17/2021 (Schoeps CCM4V'S FOB)
Uploaded by:    zmanatl
DB Link:        
Details:        http://bt.etree.org/details.php?id=612946

Contact the seeder at http://db.etree.org/zmanatl

If the link to this show does not work, it was probably removed for
being non-trade-friendly.

Description / text file:
-------------------------
Toni Lynn Washington And Friends
Monotomy Grill
Arlington, Massachusetts
6/17/2021

Source: Schoeps CCM4V'S>Lunatec V2>Sound Devices 722 (24/44.1)
FOB/DFC/KFC/ZFC/AARP 8' From Stage, 6 1/2' High
DSP: Sound Devices 722>Sound Forge 10.0>CD Wave>flac(16)
ID3 Tagged In Foobar 2000
Recorded By: Z-Man
Seeded By: Z-Man
A Team Dirty South Recording

Disc I 

01 Greeting And Band Introductions
02 *Chitlins Con Carne
03 *Blue Swing
04 *I Only Have Eyes For You
05 *Stand By Me
06 *There Is Something On Your Mind
07 Checkin' Up On My Baby
08 Three Can Play This Game
09 *It Hurt So Bad
10 *Proud Mary

* With Alex Lee Clark On Trumpet
# With Laurie On Vocals

Toni Lynn Washington - Vocals
Jesse Williams - Stand Up Bass, Electric Bass, And MC
Mike Williams - Guitar 
Bruce Bairs - Keyboards
Mark Texchierra - Drums

toni2021-06-17d01t01.flac:db08ff8d1ee772c50fe1dbce9d135284
toni2021-06-17d01t02.flac:a600be3041c1593a8263be8ffa5543cd
toni2021-06-17d01t03.flac:0798dac5030fec7d45bf873e763edd43
toni2021-06-17d01t04.flac:d542a131270fbad00c08f2023030706e
toni2021-06-17d01t05.flac:67eb78b7706984fa63baea2f6cfac247
toni2021-06-17d01t06.flac:c4c9ae2ada1c0cb52111f4223c8d2524
toni2021-06-17d01t07.flac:c15fb793dce39e3bcb01165972088540
toni2021-06-17d01t08.flac:cee9c5083bc35b01a46fc6dd449e09a3
toni2021-06-17d01t09.flac:74a959c0d33c80835813409d2f603cd1
toni2021-06-17d01t10.flac:bb4ea87b39d2e03a9970d3a4d5b9abcf

 length     expanded size    cdr  WAVE problems  fmt   ratio  filename
     2:17.50       24284444 B   ---   --   ---xx   flac  0.3659  toni2021-06-17d01t01.flac
     8:51.68       93828380 B   ---   --   ---xx   flac  0.4974  toni2021-06-17d01t02.flac
     9:23.53       99437900 B   ---   --   ---xx   flac  0.5158  toni2021-06-17d01t03.flac
     6:41.51       70856396 B   ---   --   ---xx   flac  0.4980  toni2021-06-17d01t04.flac
     7:08.06       75513356 B   ---   --   ---xx   flac  0.5093  toni2021-06-17d01t05.flac
     8:00.07       84688508 B   ---   --   ---xx   flac  0.5219  toni2021-06-17d01t06.flac
     4:39.03       49222700 B   ---   --   ---xx   flac  0.5033  toni2021-06-17d01t07.flac
     6:46.14       71651372 B   ---   --   ---xx   flac  0.4621  toni2021-06-17d01t08.flac
     5:02.06       53286956 B   ---   --   ---xx   flac  0.5234  toni2021-06-17d01t09.flac
     8:04.68       85537580 B   ---   --   ---xx   flac  0.5593  toni2021-06-17d01t10.flac
    66:55.26      708307592 B                            0.5060  (10 files)






More information about the bittorrent mailing list