[bittorrent] gd1977-03-19 Winterland SBD Master Reel (re-patch of shnid=123190)

Automated Mailer noreply-bt.e at etree.org
Tue Jun 15 01:00:45 UTC 2021


Band:           Grateful Dead
Torrent Name:   gd1977-03-19 Winterland SBD Master Reel (re-patch of shnid=123190)
Uploaded by:    charlie miller
DB Link:        
Details:        http://bt.etree.org/details.php?id=612931

Contact the seeder at http://db.etree.org/charlie miller

If the link to this show does not work, it was probably removed for
being non-trade-friendly.

Description / text file:
-------------------------
Grateful Dead - March 19, 1977
Winterland Arena - San Francisco, CA

Recording Info:
SBD > Reel Master > DAT (44.1k)

Transfer Info:
DAT (Sony PCM-R500) > Tascam DA-3000 > Samplitude Pro X6 Suite > FLAC
(3 Discs Audio / 1 DVD FLAC)

Patch Info:
SBD > Cassette Master (Maxell UD) supplies:
Franklin's Tower (8:54 - 9:24)

All Transfers and Mastering by Charlie Miller
charliemiller87 at earthlink.net
June 14, 2021

Notes:
-- Terrapin Station has some fluttering but not too bad

Set 1:
d1t01 - Bertha
d1t02 - Mama Tried
d1t03 - Loser
d1t04 - Big River
d1t05 - They Love Each Other
d1t06 - Looks Like Rain
d1t07 - Tennessee Jed
d1t08 - Estimated Prophet
d2t01 - Terrapin Station >
d2t02 - Playing In The Band >
d2t03 - Samson And Delilah >
d2t04 - Playing In The Band

Set 2:
d3t01 - Tuning
d3t02 - Eyes Of The World >
d3t03 - Dancing In The Street >
d3t04 - Wharf Rat >
d3t05 - Franklin's Tower >
d3t06 - Sugar Magnolia

Encore:
d3t07 - One More Saturday Night
d3t08 - Uncle John's Band


SHNTOOL OUTPUT:
    length     expanded size    cdr  WAVE problems  fmt   ratio  filename
     7:18.21       77312636 B   ---   --   ---xx   flac  0.5818  gd77-03-19d1t01.flac
     3:48.16       40256876 B   ---   --   ---xx   flac  0.5692  gd77-03-19d1t02.flac
     8:34.55       90799004 B   ---   --   ---xx   flac  0.5499  gd77-03-19d1t03.flac
     8:19.16       88061276 B   ---   --   ---xx   flac  0.5639  gd77-03-19d1t04.flac
     7:29.58       79340060 B   ---   --   ---xx   flac  0.5762  gd77-03-19d1t05.flac
    11:54.31      126022556 B   ---   --   ---xx   flac  0.4984  gd77-03-19d1t06.flac
     8:55.67       94531628 B   ---   --   ---xx   flac  0.5790  gd77-03-19d1t07.flac
     8:28.50       89728844 B   ---   --   ---xx   flac  0.5988  gd77-03-19d1t08.flac
    10:34.04      111847052 B   ---   --   ---xx   flac  0.5582  gd77-03-19d2t01.flac
    12:23.61      131208716 B   ---   --   ---xx   flac  0.5931  gd77-03-19d2t02.flac
     7:06.49       75261692 B   ---   --   ---xx   flac  0.6203  gd77-03-19d2t03.flac
    11:31.53      122017100 B   ---   --   ---xx   flac  0.5522  gd77-03-19d2t04.flac
     3:38.53       38579900 B   ---   --   ---xx   flac  0.4100  gd77-03-19d3t01.flac
    14:52.11      157374716 B   ---   --   ---xx   flac  0.5896  gd77-03-19d3t02.flac
    10:36.58      112326860 B   ---   --   ---xx   flac  0.6221  gd77-03-19d3t03.flac
     9:51.41      104348876 B   ---   --   ---xx   flac  0.5811  gd77-03-19d3t04.flac
    13:24.54      141952652 B   ---   --   ---xx   flac  0.5652  gd77-03-19d3t05.flac
    11:13.18      118759580 B   ---   --   ---xx   flac  0.5538  gd77-03-19d3t06.flac
     6:44.10       71289164 B   ---   --   ---xx   flac  0.5502  gd77-03-19d3t07.flac
     9:21.17       99000428 B   ---   --   ---xx   flac  0.5637  gd77-03-19d3t08.flac
   186:07.68     1970019616 B                            0.5680  (20 files)




More information about the bittorrent mailing list