[bittorrent] Goose Westville Music Bowl New Haven, Connecticut 6/13/2021 (Schoeps CCM4V'S)

Automated Mailer noreply-bt.e at etree.org
Mon Jun 14 13:43:12 UTC 2021


Band:           Other
Torrent Name:   Goose Westville Music Bowl New Haven, Connecticut 6/13/2021 (Schoeps CCM4V'S)
Uploaded by:    zmanatl
DB Link:        
Details:        http://bt.etree.org/details.php?id=612929

Contact the seeder at http://db.etree.org/zmanatl

If the link to this show does not work, it was probably removed for
being non-trade-friendly.

Description / text file:
-------------------------
Goose
Westville Music Bowl
New Haven, Connecticut
6/13/2021

Source: Schoeps CCM4V'S>Lunatec V2>Sound Devices 722 (24/44.1)
BOB/DFC/KFC/ZFC/AARP Clamped To The Rail Above The Soundboard Between Section 108 And 109, 6 1/2' High
DSP: Sound Devices 722>Sound Forge 10.0>CD Wave>flac(16)
ID3 Tagged In Foobar 2000
Recorded By: Z-Man
Seeded By: Z-Man
A Team Dirty South Recording

Disc I 1st Set

01 Shenanigan's Jam 
02 All I Need
03 Indian River 
04 Time To Flee 
05 Your Ocean
06 So Ready  

Disc II 2nd Set

01 Banter 
02 Arrow >
03 Nights In White Satin > 
04 Rosewood Heart >
05 Bob Don 
06 SOS
Encore:
07 Banter
08 Mustang Sally 
09 Butter Rum

Rick Mitarotonda - Guitar And Vocals
Trevor Weekz - Bass 
Peter Anspach - Keyboards, Guitar, And Vocals
Ben Atkind - Drums
Jeff Arevalo - Percussion And Vocals

goose2021-06-13d01t01.flac:b3885654ca02b034245cad04d3ab9687
goose2021-06-13d01t02.flac:4ff278dc0ea5d137affee23532e97ae4
goose2021-06-13d01t03.flac:6f9d8f239f05f2bd755ea26816be3316
goose2021-06-13d01t04.flac:7009b09a2c03b7932b136561a800e0f3
goose2021-06-13d01t05.flac:a29c7537a5eb00c7cdfadc7336706d64
goose2021-06-13d01t06.flac:d524ead49c7a7abcadbe3c0a32c34676
goose2021-06-13d02t01.flac:25fd080ab252a3140d69051a86661e97
goose2021-06-13d02t02.flac:0ce04c85f58c6e250e1107279f969504
goose2021-06-13d02t03.flac:c8fbc9f07c4a70f43f686f445250d603
goose2021-06-13d02t04.flac:0109d374583a9b746cf5f97d7b0490ab
goose2021-06-13d02t05.flac:5b53c4494ba4cd3134a2469a563e3832
goose2021-06-13d02t06.flac:24cce4a011e2e0cae174fb31a0fd3a8a
goose2021-06-13d02t07.flac:6f42bd14913a9d636ee5d7be6d7b4ddf
goose2021-06-13d02t08.flac:4e2f55682a5b03996d6cd4ba13cd751c
goose2021-06-13d02t09.flac:3f27466c2062e0a7f8cec1b6e4db1d3d

 length     expanded size    cdr  WAVE problems  fmt   ratio  filename
     5:24.12       57181868 B   ---   --   ---xx   flac  0.4962  goose2021-06-13d01t01.flac
    15:02.68      159272780 B   ---   --   ---xx   flac  0.5123  goose2021-06-13d01t02.flac
     5:55.20       62669084 B   ---   --   ---xx   flac  0.4604  goose2021-06-13d01t03.flac
    14:17.04      151184252 B   ---   --   ---xx   flac  0.5009  goose2021-06-13d01t04.flac
     7:41.64       81470972 B   ---   --   ---xx   flac  0.4853  goose2021-06-13d01t05.flac
    14:49.51      156939596 B   ---   --   ---xx   flac  0.5073  goose2021-06-13d01t06.flac
     0:52.61        9316316 B   ---   --   ---xx   flac  0.3559  goose2021-06-13d02t01.flac
    20:23.16      215774876 B   ---   --   ---xx   flac  0.4869  goose2021-06-13d02t02.flac
     7:12.51       76324796 B   ---   --   ---xx   flac  0.4790  goose2021-06-13d02t03.flac
    14:00.26      148237196 B   ---   --   ---xx   flac  0.4897  goose2021-06-13d02t04.flac
     6:08.60       65056364 B   ---   --   ---xx   flac  0.5154  goose2021-06-13d02t05.flac
    12:09.24      128652092 B   ---   --   ---xx   flac  0.4875  goose2021-06-13d02t06.flac
     1:18.49       13874492 B   ---   --   ---xx   flac  0.3768  goose2021-06-13d02t07.flac
     7:35.05       80273804 B   ---   --   ---xx   flac  0.4836  goose2021-06-13d02t08.flac
     7:48.62       82701068 B   ---   --   ---xx   flac  0.5046  goose2021-06-13d02t09.flac
   140:40.48     1488929556 B                            0.4925  (15 files)






More information about the bittorrent mailing list