[bittorrent] Goose Westville Music Bowl New Haven, Connecticut 6/12/2021 (Schoeps CCM4V'S )

Automated Mailer noreply-bt.e at etree.org
Sun Jun 13 07:11:02 UTC 2021


Band:           Other
Torrent Name:   Goose Westville Music Bowl New Haven, Connecticut 6/12/2021 (Schoeps CCM4V'S )
Uploaded by:    zmanatl
DB Link:        
Details:        http://bt.etree.org/details.php?id=612918

Contact the seeder at http://db.etree.org/zmanatl

If the link to this show does not work, it was probably removed for
being non-trade-friendly.

Description / text file:
-------------------------
Goose
Westville Music Bowl
New Haven, Connecticut
6/12/2021

Source: Schoeps CCM4V'S>Lunatec V2>Sound Devices 722 (24/44.1)
BOB/DFC/KFC/ZFC/AARP Clamped To The Rail Above The Soundboard Between Section 108 And 109, 6 1/2' High
DSP: Sound Devices 722>Sound Forge 10.0>CD Wave>flac(16)
ID3 Tagged In Foobar 2000
Recorded By: Z-Man
Seeded By: Z-Man
A Team Dirty South Recording

Disc I 1st Set

01 Greeting 
02 Me And My Uncle >
03 Flodown 
04 The Whales 
05 Honey Bee 
06 Yeti
07 Becca Proposes To Brendan!
08 Seekers On The Ridge Part I >
09 Seekers On The Ridge Part II 
10 Madhuvan

Disc II 2nd Set

01 Banter 
02 Fish In The Sea 
03 Jive I >
04 *Earthling Or Alien?
05 Tumble >
06 Factory Fiction
Encore:
07 Thanks/Banter
08 #Slow Ready Reprise

* With Greg On Rap
# Dedicated To Dan Berkowitz

Rick Mitarotonda - Guitar And Vocals
Trevor Weekz - Bass 
Peter Anspach - Keyboards, Guitar, And Vocals
Ben Atkind - Drums
Jeff Arevalo - Percussion And Vocals

goose2021-06-12d01t01.flac:bad98290ec77b9b8144815a83cea10bf
goose2021-06-12d01t02.flac:1caf73a330727fe9d20fdd98604c0295
goose2021-06-12d01t03.flac:a84d36fd60bbad06b9b537a5371d6f9b
goose2021-06-12d01t04.flac:704aacaa687e823b8babbd27d84be49a
goose2021-06-12d01t05.flac:32e2331c877e3909866671810218614a
goose2021-06-12d01t06.flac:1ad4d56965f61b09686fbff54bf0c94a
goose2021-06-12d01t07.flac:3159b3fe9f3835480c6c73b23a1e27fb
goose2021-06-12d01t08.flac:242cf9cb16a2a1b303303e87b9103378
goose2021-06-12d01t09.flac:44bb3348f1e6c8bd8f998616ad66fa93
goose2021-06-12d01t10.flac:a9237d37081437fb5fb62b45ec3eae67
goose2021-06-12d02t01.flac:7aba2b19eabd0f6aa4c351234299de10
goose2021-06-12d02t02.flac:3c849dc4d0fce1fd29f520cef50a53ac
goose2021-06-12d02t03.flac:3821fb3061bc78a83617282cbd07cc4b
goose2021-06-12d02t04.flac:245498caccfc98d91f10f9b7aa1bd3a5
goose2021-06-12d02t05.flac:c296fb68f2fef7e770c587b7df986bbc
goose2021-06-12d02t06.flac:d6a167da54d6783c5a7431f1f37f2c88
goose2021-06-12d02t07.flac:8d9b724cf8aae3a27f493e2ca3e7caa8
goose2021-06-12d02t08.flac:f7879db8c3e3cb951d96334c027e567f

 length     expanded size    cdr  WAVE problems  fmt   ratio  filename
     1:03.50       11230844 B   ---   --   ---xx   flac  0.3843  goose2021-06-12d01t01.flac
     6:10.10       65291564 B   ---   --   ---xx   flac  0.4801  goose2021-06-12d01t02.flac
    12:18.03      130190300 B   ---   --   ---xx   flac  0.4953  goose2021-06-12d01t03.flac
     7:22.13       77999420 B   ---   --   ---xx   flac  0.5019  goose2021-06-12d01t04.flac
     7:25.44       78601532 B   ---   --   ---xx   flac  0.4749  goose2021-06-12d01t05.flac
     9:00.42       95354828 B   ---   --   ---xx   flac  0.5187  goose2021-06-12d01t06.flac
     1:16.09       13427612 B   ---   --   ---xx   flac  0.4085  goose2021-06-12d01t07.flac
     6:17.04       66512252 B   ---   --   ---xx   flac  0.4847  goose2021-06-12d01t08.flac
     5:17.39       56010572 B   ---   --   ---xx   flac  0.4882  goose2021-06-12d01t09.flac
    21:02.27      222680348 B   ---   --   ---xx   flac  0.5019  goose2021-06-12d01t10.flac
     0:21.17        3744428 B   ---   --   ---xx   flac  0.3645  goose2021-06-12d02t01.flac
    12:24.11      131267516 B   ---   --   ---xx   flac  0.4862  goose2021-06-12d02t02.flac
     8:30.06       89978156 B   ---   --   ---xx   flac  0.4899  goose2021-06-12d02t03.flac
    14:55.00      157878044 B   ---   --   ---xx   flac  0.4802  goose2021-06-12d02t04.flac
    12:26.73      131766140 B   ---   --   ---xx   flac  0.4693  goose2021-06-12d02t05.flac
    16:13.12      171665468 B   ---   --   ---xx   flac  0.4934  goose2021-06-12d02t06.flac
     0:39.52        7001948 B   ---   --   ---xx   flac  0.3834  goose2021-06-12d02t07.flac
     6:07.31       64811756 B   ---   --   ---xx   flac  0.4565  goose2021-06-12d02t08.flac
   148:50.68     1575412728 B                            0.4867  (18 files)







More information about the bittorrent mailing list