[bittorrent] Dwayne Haggins Band Revolution Hall Lexington, Massachusetts 6/9/2021 (Schoeps CCM4V'S FOB)

Automated Mailer noreply-bt.e at etree.org
Thu Jun 10 10:44:59 UTC 2021


Band:           Other
Torrent Name:   Dwayne Haggins Band Revolution Hall Lexington, Massachusetts 6/9/2021 (Schoeps CCM4V'S FOB)
Uploaded by:    zmanatl
DB Link:        
Details:        http://bt.etree.org/details.php?id=612893

Contact the seeder at http://db.etree.org/zmanatl

If the link to this show does not work, it was probably removed for
being non-trade-friendly.

Description / text file:
-------------------------
Dwayne Haggins Band
Revolution Hall
Lexington, Massachusetts
6/9/2021

Source: Schoeps CCM4V'S>Lunatec V2>Sound Devices 722 (24/44.1)
FOB/DFC/KFC/ZFC/AARP 6' From Stage, 6 1/2' High
DSP: Sound Devices 722>Sound Forge 10.0>CD Wave>flac(16)
ID3 Tagged In Foobar 2000
Recorded By: Z-Man
Seeded By: Z-Man
A Team Dirty South Recording

Disc I

01 Black River 
02 Ruben
03 ?
04 Worried Man >
05 Speaker In tThe Yard
06 Who Is He (And What Is He To You?)
07 Hit The Road Jack 
08 ?
09 Dear Francine 
10 ? >
11 Catfish Blues

Dwayne Haggins - Guitar And Vocals
Will Woyda - Bass
Mario Peretti - Saxophone And Vocals
Johnu - Drums

dwayne2021-06-09d01t01.flac:71170d34bbde2449530196da107b1b49
dwayne2021-06-09d01t02.flac:1d6f7fa434826a6e518589a6387c71b4
dwayne2021-06-09d01t03.flac:6a0ad818a416f5af2245728531995138
dwayne2021-06-09d01t04.flac:1983c18842a76b3d323886d72ef7ab1a
dwayne2021-06-09d01t05.flac:3af0af34bee4553d4543c955af9c3b37
dwayne2021-06-09d01t06.flac:589725655f076af6e797d85395bb95f0
dwayne2021-06-09d01t07.flac:064d9a1258596153d92397336194ecaf
dwayne2021-06-09d01t08.flac:eb403ad5f7005b9098e7c4f2f50eb403
dwayne2021-06-09d01t09.flac:d49b98f6006f85767c6e3dea95e41ace
dwayne2021-06-09d01t10.flac:8e1535e722b2d30fd2645b672b37fcf2
dwayne2021-06-09d01t11.flac:cf5369b00838dbdc922f9c637ef567b8

length     expanded size    cdr  WAVE problems  fmt   ratio  filename
     9:05.26       96199196 B   ---   --   ---xx   flac  0.4470  dwayne2021-06-09d01t01.flac
     7:16.04       76919852 B   ---   --   ---xx   flac  0.4009  dwayne2021-06-09d01t02.flac
     5:46.19       61079132 B   ---   --   ---xx   flac  0.5177  dwayne2021-06-09d01t03.flac
     3:36.36       38187116 B   ---   --   ---xx   flac  0.4377  dwayne2021-06-09d01t04.flac
     5:59.59       63466412 B   ---   --   ---xx   flac  0.4107  dwayne2021-06-09d01t05.flac
     6:46.57       71752508 B   ---   --   ---xx   flac  0.4510  dwayne2021-06-09d01t06.flac
     5:54.37       62532668 B   ---   --   ---xx   flac  0.4548  dwayne2021-06-09d01t07.flac
     8:10.53       86560700 B   ---   --   ---xx   flac  0.5040  dwayne2021-06-09d01t08.flac
     5:07.66       54310076 B   ---   --   ---xx   flac  0.5041  dwayne2021-06-09d01t09.flac
    12:49.13      135682220 B   ---   --   ---xx   flac  0.5310  dwayne2021-06-09d01t10.flac
     5:33.35       58823564 B   ---   --   ---xx   flac  0.5285  dwayne2021-06-09d01t11.flac
    76:06.30      805513444 B                            0.4757  (11 files)





More information about the bittorrent mailing list