[bittorrent] Jen Kearny And Friends Craft Food Hall ProJect CityPoint Waltham, Massachusetts 6/8/2021 (Schoeps CCM4V'S FOB)

Automated Mailer noreply-bt.e at etree.org
Wed Jun 9 17:42:29 UTC 2021


Band:           Other
Torrent Name:   Jen Kearny And Friends Craft Food Hall ProJect CityPoint Waltham, Massachusetts 6/8/2021 (Schoeps CCM4V'S FOB)
Uploaded by:    zmanatl
DB Link:        
Details:        http://bt.etree.org/details.php?id=612889

Contact the seeder at http://db.etree.org/zmanatl

If the link to this show does not work, it was probably removed for
being non-trade-friendly.

Description / text file:
-------------------------
Jen Kearny And Friends
Craft Food Hall ProJect CityPoint
Waltham, Massachusetts
6/8/2021

Source: Schoeps CCM4V'S>Lunatec V2>Sound Devices 722 (24/44.1)
FOB/DFC/KFC/ZFC/AARP 10' From Stage, 6 1/2' High
DSP: Sound Devices 722>Sound Forge 10.0>CD Wave>flac(16)
ID3 Tagged In Foobar 2000
Recorded By: Z-Man
Seeded By: Z-Man
A Team Dirty South Recording

Disc I 1st Set

01 Overwhelming
02 Pick Yourself Up
03 ?
04 Waiting For It 
05 Pick It Up And Lay It In The Cut
06 Better
07 In Your Neighborhood
08 ?
09 Band Introductions/Outro

Disc II 2nd Set

01 To The Moon
02 Warm Bath Eyes
03 Age Of Blame
04 Magician
05 What If
06 Dr. Feelgood 
07 ?
08 Writing On Water
09 Beautiful Ones
10 Band Introductions/Outro

Jen Kearny - Keyboard And Vocals
Steve Fell - Guitar 
Dominic Davis - Bass
James Calendrelle - Saxophone 
Yahuba Garcia - Percussion And Vocals
Peter MacLean - Drums

jen2021-06-08d01t01.flac:360f1791df036de1fcd323fc57eee0a6
jen2021-06-08d01t02.flac:c8646624639342d3408726a8e55820c3
jen2021-06-08d01t03.flac:72aa9251fac3c430d858711755f82b04
jen2021-06-08d01t04.flac:75c2758fe50e87672ec50e5f8a80739b
jen2021-06-08d01t05.flac:e8fa4fda762077c58dfab4e559caa84a
jen2021-06-08d01t06.flac:ed4ec8f7f24972bcf1980b38037eeefd
jen2021-06-08d01t07.flac:d12be70ff205206594cf4a4e72128358
jen2021-06-08d01t08.flac:d2bb4a4b6669943498e32c300c98e8c1
jen2021-06-08d01t09.flac:b0bcc453315aac171398abe0e65754ec
jen2021-06-08d02t01.flac:a3bdfb98a94b100891e9747ea6780455
jen2021-06-08d02t02.flac:4a8a1a858f1b152a69cc875ebf5d1cb8
jen2021-06-08d02t03.flac:60ccd2cea1f85bfc4d17c299f2de77d6
jen2021-06-08d02t04.flac:2a6fb7a2ad93bef8093cbcb095ba4760
jen2021-06-08d02t05.flac:489789e6851ccd2bafb797d0ac5c089c
jen2021-06-08d02t06.flac:d8e5b1f4b7942b1ea087e4ea9b9443a7
jen2021-06-08d02t07.flac:09eaee16083f37497ca97f42a0fbb12f
jen2021-06-08d02t08.flac:b6639b054e141fc770b0c50527125f13
jen2021-06-08d02t09.flac:11e4f57a4d26a8382948a69b10e59ed8
jen2021-06-08d02t10.flac:ad766e4eb445789f667fd9cea0555111

length     expanded size    cdr  WAVE problems  fmt   ratio  filename
     6:02.02       63861548 B   ---   --   ---xx   flac  0.4879  jen2021-06-08d01t01.flac
     6:28.44       68546732 B   ---   --   ---xx   flac  0.4669  jen2021-06-08d01t02.flac
     5:09.22       54559388 B   ---   --   ---xx   flac  0.5082  jen2021-06-08d01t03.flac
     8:51.02       93673148 B   ---   --   ---xx   flac  0.4558  jen2021-06-08d01t04.flac
     7:41.68       81480380 B   ---   --   ---xx   flac  0.5291  jen2021-06-08d01t05.flac
     7:27.08       78869660 B   ---   --   ---xx   flac  0.4754  jen2021-06-08d01t06.flac
     9:57.15      105346124 B   ---   --   ---xx   flac  0.4621  jen2021-06-08d01t07.flac
    10:40.60      113037164 B   ---   --   ---xx   flac  0.5254  jen2021-06-08d01t08.flac
     1:12.38       12790220 B   ---   --   ---xx   flac  0.3794  jen2021-06-08d01t09.flac
     7:41.30       81391004 B   ---   --   ---xx   flac  0.4508  jen2021-06-08d02t01.flac
     8:41.57       92038508 B   ---   --   ---xx   flac  0.4812  jen2021-06-08d02t02.flac
     8:35.30       90916604 B   ---   --   ---xx   flac  0.4925  jen2021-06-08d02t03.flac
     7:25.35       78580364 B   ---   --   ---xx   flac  0.5043  jen2021-06-08d02t04.flac
     5:06.72       54147788 B   ---   --   ---xx   flac  0.4888  jen2021-06-08d02t05.flac
     9:52.17      104468828 B   ---   --   ---xx   flac  0.4179  jen2021-06-08d02t06.flac
     7:35.40       80356124 B   ---   --   ---xx   flac  0.5019  jen2021-06-08d02t07.flac
     5:25.43       57431180 B   ---   --   ---xx   flac  0.4742  jen2021-06-08d02t08.flac
    10:09.46      107535836 B   ---   --   ---xx   flac  0.4962  jen2021-06-08d02t09.flac
     1:48.44       19154732 B   ---   --   ---xx   flac  0.3899  jen2021-06-08d02t10.flac
   135:52.73     1438185332 B                            0.4805  (19 files)






More information about the bittorrent mailing list