[bittorrent] Dwayne Haggins Band Revolution Hall Lexington, Massachusetts 6/2/2021 (Schoeps CCM4V'S FOB)

Automated Mailer noreply-bt.e at etree.org
Tue Jun 8 00:15:46 UTC 2021


Band:           Other
Torrent Name:   Dwayne Haggins Band Revolution Hall Lexington, Massachusetts 6/2/2021 (Schoeps CCM4V'S FOB)
Uploaded by:    zmanatl
DB Link:        
Details:        http://bt.etree.org/details.php?id=612869

Contact the seeder at http://db.etree.org/zmanatl

If the link to this show does not work, it was probably removed for
being non-trade-friendly.

Description / text file:
-------------------------
Dwayne Haggins Band
Revolution Hall
Lexington, Massachusetts
6/2/2021

Source: Schoeps CCM4V'S>Lunatec V2>Sound Devices 722 (24/44.1)
FOB/DFC/KFC/ZFC/AARP 6' From Stage, 6 1/2' High
DSP: Sound Devices 722>Sound Forge 10.0>CD Wave>flac(16)
ID3 Tagged In Foobar 2000
Recorded By: Z-Man
Seeded By: Z-Man
A Team Dirty South Recording

Disc I 

Soundcheck:
01 
Set:
02 
03 She Belongs To Me
04 
05 
06 Walkin' And Talkin'

Disc II 

01 ? >
02 16 Tons >
03 Hit The Road Jack >
04 Wayfaring Stranger >
05 Kaw Liga >
06 Run Through The Door
07 Let Me Go
08 So Far Out In The Woods
09 Don't Think Twice, It's Alright
10 Jambalaya >
11 Drivin' Nails In My Coffin >
12 Jambalaya >
13 Let It Go

Dwayne Haggins - Guitar And Vocals
Aaron Shreave - Lead Guitar
Will Woyda - Bass
Mario Peretti - Saxophone And Vocals
Johnu - Drums

dwayne2021-06-02d01t01.flac:a1c89c12f4f1e677b3c45680ebb87cef
dwayne2021-06-02d01t02.flac:07e0966da4caeeb197ac22b8c110e7c7
dwayne2021-06-02d01t03.flac:278c344e2033f2a5734f13342a5dbc0f
dwayne2021-06-02d01t04.flac:4601bf005a2d79e873dfb09699acdb33
dwayne2021-06-02d01t05.flac:2c8ece8938f81752625ea20c2216c308
dwayne2021-06-02d01t06.flac:b663a0d12789a5d1b60bcb2be015a5e5
dwayne2021-06-02d02t01.flac:d38640786cb1064f500652f175e4ac6d
dwayne2021-06-02d02t02.flac:42f7d5d9c18dec1816e81daf50ef676f
dwayne2021-06-02d02t03.flac:63c4134038c4b55c797d27a52fe10ded
dwayne2021-06-02d02t04.flac:7741d6013d8f996805f377c64e03361b
dwayne2021-06-02d02t05.flac:cad4277e46947cd723134abbd9c5cad4
dwayne2021-06-02d02t06.flac:574256d7588ba9320e6e35af3c1a94d8
dwayne2021-06-02d02t07.flac:142dae7a587ff14b2412349bfe924cae
dwayne2021-06-02d02t08.flac:6fe4dd86736f497c4e9c85f01eb9563e
dwayne2021-06-02d02t09.flac:5d441f90c943691ae31c2ba6f4faaa9e
dwayne2021-06-02d02t10.flac:85a653ffff1516e5391c35cf966c8cd2
dwayne2021-06-02d02t11.flac:47de2504bb997ad1ead4b5b1daab8b63
dwayne2021-06-02d02t12.flac:b4e9f99af8e370101838f5de01ee7955
dwayne2021-06-02d02t13.flac:8edfd5816bfe41a7d2cde8385d49b73a

 length     expanded size    cdr  WAVE problems  fmt   ratio  filename
     3:59.58       42296060 B   ---   --   ---xx   flac  0.4099  dwayne2021-06-02d01t01.flac
     7:40.38       81233420 B   ---   --   ---xx   flac  0.4849  dwayne2021-06-02d01t02.flac
     5:50.05       61751804 B   ---   --   ---xx   flac  0.4625  dwayne2021-06-02d01t03.flac
     7:24.42       78420428 B   ---   --   ---xx   flac  0.5369  dwayne2021-06-02d01t04.flac
     8:08.11       86109116 B   ---   --   ---xx   flac  0.4196  dwayne2021-06-02d01t05.flac
     4:46.47       50560988 B   ---   --   ---xx   flac  0.5741  dwayne2021-06-02d01t06.flac
     5:44.30       60752204 B   ---   --   ---xx   flac  0.5270  dwayne2021-06-02d02t01.flac
     3:12.03       33875900 B   ---   --   ---xx   flac  0.5391  dwayne2021-06-02d02t02.flac
     3:05.65       32786924 B   ---   --   ---xx   flac  0.4769  dwayne2021-06-02d02t03.flac
     3:33.58       37709660 B   ---   --   ---xx   flac  0.4169  dwayne2021-06-02d02t04.flac
     6:28.31       68516156 B   ---   --   ---xx   flac  0.4850  dwayne2021-06-02d02t05.flac
     4:45.11       50299916 B   ---   --   ---xx   flac  0.5544  dwayne2021-06-02d02t06.flac
     3:24.43       36086780 B   ---   --   ---xx   flac  0.4718  dwayne2021-06-02d02t07.flac
     7:35.42       80360828 B   ---   --   ---xx   flac  0.5161  dwayne2021-06-02d02t08.flac
     7:16.48       77023340 B   ---   --   ---xx   flac  0.3827  dwayne2021-06-02d02t09.flac
     1:33.20       16452284 B   ---   --   ---xx   flac  0.4665  dwayne2021-06-02d02t10.flac
     0:45.47        8048588 B   ---   --   ---xx   flac  0.5020  dwayne2021-06-02d02t11.flac
     2:17.15       24202124 B   ---   --   ---xx   flac  0.4496  dwayne2021-06-02d02t12.flac
     3:14.74       34395692 B   ---   --   ---xx   flac  0.5548  dwayne2021-06-02d02t13.flac
    90:47.13      960882212 B                            0.4839  (19 files)







More information about the bittorrent mailing list