[bittorrent] Disco Biscuits Westville Music Bowl New Haven, Connecticut 6/5/2021 (Schoeps CCM4V'S)

Automated Mailer noreply-bt.e at etree.org
Mon Jun 7 02:57:50 UTC 2021


Band:           Disco Biscuits
Torrent Name:   Disco Biscuits Westville Music Bowl New Haven, Connecticut 6/5/2021 (Schoeps CCM4V'S)
Uploaded by:    zmanatl
DB Link:        
Details:        http://bt.etree.org/details.php?id=612865

Contact the seeder at http://db.etree.org/zmanatl

If the link to this show does not work, it was probably removed for
being non-trade-friendly.

Description / text file:
-------------------------
Disco Biscuits
Westville Music Bowl
New Haven, Connecticut
6/5/2021

Source: Schoeps CCM4V'S>Lunatec V2>Sound Devices 722 (24/44.1)
BOB/DFC/KFC/ZFC/AARP Clamped To The Rail Behind The Soundboard, Between Section 108 And 109, 6 1/2' High
DSP: Sound Devices 722>Sound Forge 10.0>CD Wave>flac(16)
ID3 Tagged In Foobar 2000
Recorded By: Z-Man
Seeded By: Z-Man
A Team Dirty South Recording

Disc I 1st Set

01 *7-11 >
02 Pat And Dex 
03 Pygmy Twylyte >
04 4th Of July >
05 The Great Abyss >
06 Story Of The World 

Disc II 2nd Set

01 Strobelights And Martinis >
02 #Above The Waves >
03 Basis For A Day >
04 @Tractorbeam Jam >
05 Strobelights And Martinis >
06 Basis For A Day

Disc III Encore 

01 Station >
02 7-11 

* With It Wasn't Me Teases
# Inverted Version
@ Fusion 

Jon "The Barber" Gutwillig - Guitar And Vocals
Marc "Brownie" Brownstein - Bass And Vocals
Aaron Magner - Keyboards And Vocals
Allen Aucoin - Drums

disco2021-06-05d01t01.flac:ae9fd6b56b3edb955d23748a31381faf
disco2021-06-05d01t02.flac:8954fb0be4a31676870707df3206b98f
disco2021-06-05d01t03.flac:a405a030abf3a4e71c00b75dc29a4f2f
disco2021-06-05d01t04.flac:0c5f5cf3963bd7c7c69f5821075db27e
disco2021-06-05d01t05.flac:f2bd884a8f2bf543625fed110047a1f7
disco2021-06-05d01t06.flac:e50cb89e8addab6154bc3c8b23fd65d6
disco2021-06-05d02t01.flac:007a39ee410513e88aa3a4add34d7dfe
disco2021-06-05d02t02.flac:0733f102f6bfada0fa15e2d1fe1fe000
disco2021-06-05d02t03.flac:38e2318c6a4181bdb062ebcc112b9148
disco2021-06-05d02t04.flac:0fa88f1b876441f7accd4173fc2cfd86
disco2021-06-05d02t05.flac:83b2348cca40219b32702e8dadd0fa41
disco2021-06-05d02t06.flac:d47c1a2af2c4cf3a08449ed96128fcaf
disco2021-06-05d03t01.flac:07447914fa28add52374d83501ff09a0
disco2021-06-05d03t02.flac:20755f5bce4e4f7e501c9aa79b908027

 length     expanded size    cdr  WAVE problems  fmt   ratio  filename
     7:35.16       80299676 B   ---   --   ---xx   flac  0.4807  disco2021-06-05d01t01.flac
    17:53.07      189293708 B   ---   --   ---xx   flac  0.4750  disco2021-06-05d01t02.flac
    11:17.31      119495756 B   ---   --   ---xx   flac  0.4713  disco2021-06-05d01t03.flac
    11:37.10      122974364 B   ---   --   ---xx   flac  0.4775  disco2021-06-05d01t04.flac
    11:21.18      120170780 B   ---   --   ---xx   flac  0.5143  disco2021-06-05d01t05.flac
    13:46.31      145779356 B   ---   --   ---xx   flac  0.4807  disco2021-06-05d01t06.flac
    13:34.61      143733116 B   ---   --   ---xx   flac  0.5039  disco2021-06-05d02t01.flac
    21:00.47      222374588 B   ---   --   ---xx   flac  0.4808  disco2021-06-05d02t02.flac
     9:57.02      105315548 B   ---   --   ---xx   flac  0.4805  disco2021-06-05d02t03.flac
    21:55.16      232003676 B   ---   --   ---xx   flac  0.4826  disco2021-06-05d02t04.flac
     4:14.46       44913836 B   ---   --   ---xx   flac  0.4937  disco2021-06-05d02t05.flac
     9:37.63      101931020 B   ---   --   ---xx   flac  0.4652  disco2021-06-05d02t06.flac
     5:16.65       55895324 B   ---   --   ---xx   flac  0.4492  disco2021-06-05d03t01.flac
     3:38.31       38528156 B   ---   --   ---xx   flac  0.4712  disco2021-06-05d03t02.flac
   162:45.69     1722708904 B                            0.4819  (14 files)






More information about the bittorrent mailing list