[bittorrent] Widespread Panic 1996-02-10 Sheraton Ballroom, Steamboat Springs, CO (SBD Remaster)

Automated Mailer noreply-bt.e at etree.org
Sun Jun 6 18:12:41 UTC 2021


Band:           Widespread Panic
Torrent Name:   Widespread Panic 1996-02-10 Sheraton Ballroom, Steamboat Springs, CO (SBD Remaster)
Uploaded by:    dfries
DB Link:        
Details:        http://bt.etree.org/details.php?id=612858

Contact the seeder at http://db.etree.org/dfries

If the link to this show does not work, it was probably removed for
being non-trade-friendly.

Description / text file:
-------------------------
Widespread Panic
Sheraton Ballroom, Steamboat Springs, CO
February 10, 1996

Set 1

Pickin' Up The Pieces *
Blight * (Widespread Panic with Vic Chesnutt)
Junior *
Wondering
Gradle
Radio Child
Happy Child
Disco
Walkin' (For Your Love)
Mercy *
Flat Foot Flewzy * (NRBQ)

Set 2

She Caught The Katy (Taj Mahal)
Better Off
Ain't No Use (The Meters)
Tie Your Shoes 
Space Wrangler
Just Kissed My Baby (The Meters)
Henry Parsons Died (Bloodkin)
C. Brown *
Me And The Devil Blues * (Robert Johnson)
Fixin' To Die * (Bukka White)
Ain't Life Grand *
Tall Boy
Mr. Soul * (Neil Young/Buffalo Springfield)

  
John Bell - vocals and guitar
Michael Houser - vocals and guitar
Dave Schools - vocals and bass guitar
Todd Nance - drums
Sonny Ortiz - percussion
Jojo Herman - keyboards and vocals

* with David Blackmon - fiddle 

Run time: 2 h 32 min 41 sec
Format: FLAC 16 bit/44.1kHZ

SBD mix remastered by D. Fries (2021)


*** This is a remaster of the files shared by Steve Bohannon and Alan Schwartz.  The previous text is here: ***

https://www.panicstream.com/vault/widespread-panic-02101996-steamboat-springs-co/


Widespread Panic
02/10/1996 
Sheraton Ballroom
Steamboat Springs, CO 

Source: DSBD > DAT > Standalone > EAC
First 3 songs - AUD: akg451 > Oade m148)
Thanks to Steve Bohannon for the show
Source fixes and seed by Alan Schwartz
**FSHN > WAV > SBE Fixes > Rename > FLAC - 05/26/2011


Disc 1: Set 1
01. Pickin' Up The Pieces*
02. Blight*
03. Junior*
04. Wondering
05. Gradle
06. Radio Child
07. Happy Child > 
08. Disco
09. Walkin' (For Your Love)
10. Mercy* > 
11. Flat Foot Flewzy*  
  
Disc 2: Set 2
01. She Caught The Katy > 
02. Better Off
03. Ain't No Use > 
04. Tie Your Shoes > 
05. Space Wrangler > 
06. Just Kissed My Baby
07. Henry Parsons Died 

Disc 3: 
01. C. Brown* > 
02. Me And The Devil Blues* > 
03. Fixin' To Die*
04. Ain't Life Grand*
Encore: 
05. Tall Boy > 
06. Mr. Soul*  
  
* with David Blackmon on fiddle [Sit & Ski Tour] 

Notes: There is some PA hum throughout the show.. There is quite a bit of digi during Wonderin', there was also a DO in Radio Child, and one in Mercy.. Some Board Static during JKMB, 2 pieces of digi at about 2:30 in Parsons and static at the start of D3.. Mr. Soul also cuts a bit early....Sounds real nice though.. All cleaned as best I could.

Setlist thanks to: http://www.everydaycompanion.com/setlists/19960210a.asp

wsp1996-02-10d1t01.flac:3aee7f5ddc458d2c28c48f370c409b5c
wsp1996-02-10d1t02.flac:b293e54e2af4d21b223fd438cdeab952
wsp1996-02-10d1t03.flac:0c332fb1b4b7882ca035c4111c690f21
wsp1996-02-10d1t04.flac:e9d0a12af91ca1896cc8056bcd8c1250
wsp1996-02-10d1t05.flac:de1972700654f9b3b6313b3355fcc809
wsp1996-02-10d1t06.flac:af871e9ecf5a163e2e19f363bd98558f
wsp1996-02-10d1t07.flac:c153adacdc775ab1efb830233bef3495
wsp1996-02-10d1t08.flac:e7dc4eb62a0685f8b232602e68a21319
wsp1996-02-10d1t09.flac:f34aa237be0414186984da3fb85e3ac8
wsp1996-02-10d1t10.flac:f37250a6d7f87cac7f7830f3ccd1fc68
wsp1996-02-10d1t11.flac:48b0a3723ef251e5f13cfe4a904b48d6
wsp1996-02-10d2t01.flac:6168217bf09a100db78b7d37ddb75966
wsp1996-02-10d2t02.flac:11ed1981c5d4c397396322f3b5cde47b
wsp1996-02-10d2t03.flac:e03cbff9f6c62ad9b6143de31cd15fb6
wsp1996-02-10d2t04.flac:e0580ea125a6557cbd42c38df0cc399f
wsp1996-02-10d2t05.flac:d9facb454ea552f7e8491783cf48fb5f
wsp1996-02-10d2t06.flac:6e01a642ddd74a1ac4508f195a81dc98
wsp1996-02-10d2t07.flac:fe1c2abfa2901a93cb47357526d3495b
wsp1996-02-10d3t01.flac:fa7887038674b2e2937003b06bf82281
wsp1996-02-10d3t02.flac:b393e8ee52f85d4601a786d4ba4447f4
wsp1996-02-10d3t03.flac:f8437d68e3d8d3fb26c927eabdeec336
wsp1996-02-10d3t04.flac:94e17eaa3ec4e73138fc5a5dc6120227
wsp1996-02-10d3t05.flac:4e44ae537df7c07e95fb89e92a772cbd
wsp1996-02-10d3t06.flac:7a90511234f13a5b752a400c284dbed6

    length     expanded size    cdr  WAVE problems  fmt   ratio  filename
     5:11.57       54994508 B   ---   --   ---xx   flac  0.5704  wsp1996-02-10d1t01.flac
     4:40.26       49453196 B   ---   --   ---xx   flac  0.5659  wsp1996-02-10d1t02.flac
     4:47.32       50702108 B   ---   --   ---xx   flac  0.5730  wsp1996-02-10d1t03.flac
     4:36.45       48792284 B   ---   --   ---xx   flac  0.6824  wsp1996-02-10d1t04.flac
     4:54.38       51951020 B   ---   --   ---xx   flac  0.6330  wsp1996-02-10d1t05.flac
     6:23.62       67707068 B   ---   --   ---xx   flac  0.6615  wsp1996-02-10d1t06.flac
     1:08.45       12101084 B   ---   --   ---xx   flac  0.5629  wsp1996-02-10d1t07.flac
     4:09.04       43933052 B   ---   --   ---xx   flac  0.6861  wsp1996-02-10d1t08.flac
     5:08.20       54378284 B   ---   --   ---xx   flac  0.6792  wsp1996-02-10d1t09.flac
     8:32.39       90408572 B   ---   --   ---xx   flac  0.6539  wsp1996-02-10d1t10.flac
     5:31.52       58510748 B   ---   --   ---xx   flac  0.7032  wsp1996-02-10d1t11.flac
     3:44.68       39673580 B   ---   --   ---xx   flac  0.6667  wsp1996-02-10d2t01.flac
     5:38.34       59703212 B   ---   --   ---xx   flac  0.6814  wsp1996-02-10d2t02.flac
     9:15.07       97918508 B   ---   --   ---xx   flac  0.6642  wsp1996-02-10d2t03.flac
     8:46.35       92868764 B   ---   --   ---xx   flac  0.6552  wsp1996-02-10d2t04.flac
     9:49.31      103972556 B   ---   --   ---xx   flac  0.6796  wsp1996-02-10d2t05.flac
     9:24.50       99607244 B   ---   --   ---xx   flac  0.6711  wsp1996-02-10d2t06.flac
     7:01.48       74377340 B   ---   --   ---xx   flac  0.6681  wsp1996-02-10d2t07.flac
     7:58.27       84382748 B   ---   --   ---xx   flac  0.6616  wsp1996-02-10d3t01.flac
     9:21.11       98986316 B   ---   --   ---xx   flac  0.6767  wsp1996-02-10d3t02.flac
    10:04.35      106627964 B   ---   --   ---xx   flac  0.6590  wsp1996-02-10d3t03.flac
     7:40.09       81165212 B   ---   --   ---xx   flac  0.5958  wsp1996-02-10d3t04.flac
     5:05.12       53830268 B   ---   --   ---xx   flac  0.6653  wsp1996-02-10d3t05.flac
     3:57.10       41830364 B   ---   --   ---xx   flac  0.6975  wsp1996-02-10d3t06.flac
   152:51.47     1617876000 B                            0.6553  (24 files)



More information about the bittorrent mailing list