[bittorrent] Disco Biscuits Westville Music Bowl New Haven, Connecticut 6/4/2021 (Schoeps CCM4V'S FOB)

Automated Mailer noreply-bt.e at etree.org
Sun Jun 6 05:59:24 UTC 2021


Band:           Disco Biscuits
Torrent Name:   Disco Biscuits Westville Music Bowl New Haven, Connecticut 6/4/2021 (Schoeps CCM4V'S FOB)
Uploaded by:    zmanatl
DB Link:        
Details:        http://bt.etree.org/details.php?id=612854

Contact the seeder at http://db.etree.org/zmanatl

If the link to this show does not work, it was probably removed for
being non-trade-friendly.

Description / text file:
-------------------------
Disco Biscuits
Westville Music Bowl
New Haven, Connecticut
6/4/2021

Source: Schoeps CCM4V'S>Lunatec V2>Sound Devices 722 (24/44.1)
FOB/DFC/KFC/ZFC/AARP Clamped To The Soundboard Frame, 6 1/2' High
DSP: Sound Devices 722>Sound Forge 10.0>CD Wave>flac(16)
ID3 Tagged In Foobar 2000
Recorded By: Z-Man
Seeded By: Z-Man
A Team Dirty South Recording

Disc I 1st Set

01 Greeting
02 Safety Dance >
03 Mr. Don >
04 Rocket Science >
05 Mr. Don
06 Aceetobee > I Feel Love > Aceetobee >
07 Confrontation

Disc II 2nd Set

01 Banter
02 Sister Judy's Soul Shack >
03 Helicopters >
04 Munchkin Invasion >
05 Helicopters >
06 Munchkin Invasion > 
07 Tractorbeam (Eden) >
08 Sister Judy's Soul Shack

Disc III Encore 

01 Naeba

Jon "The Barber" Gutwillig - Guitar And Vocals
Marc "Brownie" Brownstein - Bass And Vocals
Aaron Magner - Keyboards And Vocals
Allen Aucoin - Drums

disco2021-06-04d01t01.flac:adc7ebf1c8414c9b8e0cb7514fe6c309
disco2021-06-04d01t02.flac:881aaf626b868dffc3a4a71089d0c2dd
disco2021-06-04d01t03.flac:631e4d55b965e2a45b896a8592aca58e
disco2021-06-04d01t04.flac:cd183b37c4e1fd40c24113e93b848989
disco2021-06-04d01t05.flac:a828552ca15c400bd78f46b20f0a5164
disco2021-06-04d01t06.flac:87494421caa57282f06d18bcaf1ae210
disco2021-06-04d01t07.flac:6e0144ac8189cf02550923d9e8deb735
disco2021-06-04d02t01.flac:7d42de137cfb14dca5925cc84d68a1db
disco2021-06-04d02t02.flac:faf9a8ea08fa115891de2b9cfc098731
disco2021-06-04d02t03.flac:891d21b0aeff5fed39e627f89636a873
disco2021-06-04d02t04.flac:0b4a57b658c132340b0ca9e33ab316e2
disco2021-06-04d02t05.flac:0da3ca5eddcb897d3642ba556d13403c
disco2021-06-04d02t06.flac:34da284e009e732bf9fcdea51865271a
disco2021-06-04d02t07.flac:38b106b514b06e48c000d908d71f500e
disco2021-06-04d02t08.flac:614790171a4a06d610e8afafcdf3b4da
disco2021-06-04d03t01.flac:ca38a3c4ae79b5ea1e7abb3d0af21d0c

  length     expanded size    cdr  WAVE problems  fmt   ratio  filename
     0:28.54        5066252 B   ---   --   ---xx   flac  0.2803  disco2021-06-04d01t01.flac
    12:48.61      135618716 B   ---   --   ---xx   flac  0.4892  disco2021-06-04d01t02.flac
     6:05.64       64536572 B   ---   --   ---xx   flac  0.4952  disco2021-06-04d01t03.flac
    17:21.53      183757100 B   ---   --   ---xx   flac  0.5300  disco2021-06-04d01t04.flac
     8:57.27       94790348 B   ---   --   ---xx   flac  0.5065  disco2021-06-04d01t05.flac
    19:07.15      202366124 B   ---   --   ---xx   flac  0.5083  disco2021-06-04d01t06.flac
    12:42.27      134480348 B   ---   --   ---xx   flac  0.5022  disco2021-06-04d01t07.flac
     2:21.21       24921836 B   ---   --   ---xx   flac  0.3447  disco2021-06-04d02t01.flac
    16:35.00      175518044 B   ---   --   ---xx   flac  0.4900  disco2021-06-04d02t02.flac
    12:58.11      137265116 B   ---   --   ---xx   flac  0.5187  disco2021-06-04d02t03.flac
     4:15.46       45090236 B   ---   --   ---xx   flac  0.4916  disco2021-06-04d02t04.flac
    21:22.46      226253036 B   ---   --   ---xx   flac  0.5157  disco2021-06-04d02t05.flac
     1:29.59       15838412 B   ---   --   ---xx   flac  0.4941  disco2021-06-04d02t06.flac
    20:04.27      212449148 B   ---   --   ---xx   flac  0.4979  disco2021-06-04d02t07.flac
     0:50.20        8867084 B   ---   --   ---xx   flac  0.4672  disco2021-06-04d02t08.flac
     7:09.08       75694460 B   ---   --   ---xx   flac  0.4783  disco2021-06-04d03t01.flac
   164:38.14     1742512832 B                            0.5016  (16 files)







More information about the bittorrent mailing list