[bittorrent] gd1988-12-31.152583..UltraMatrix.sbd.cm.miller.t.flac16

Automated Mailer noreply-bt.e at etree.org
Sat Jun 5 21:26:26 UTC 2021


Band:           Grateful Dead
Torrent Name:   gd1988-12-31.152583..UltraMatrix.sbd.cm.miller.t.flac16
Uploaded by:    norm
DB Link:        
Details:        http://bt.etree.org/details.php?id=612851

Contact the seeder at http://db.etree.org/norm

If the link to this show does not work, it was probably removed for
being non-trade-friendly.

Description / text file:
-------------------------
Grateful Dead - December 31, 1988
Oakland Coliseum Arena - Oakland, CA

Recording Info:
UltraMatrix SBD (Broadcast Mix) > Cassette Master (TDK MA-XG)

Transfer Info:
Cassette Master (Nakamichi CR-7A) > Tascam DA-3000 (DSF 1-bit/5.6MHz) >
Tascam Hi-Res Editor (WAV 24-bit/96k) > Adobe Audition 2020 > Samplitude Pro X5 Suite > FLAC/24
(1 DVD FLAC)

All Transfers and Mastering by Charlie Miller
charliemiller87 at earthlink.net
April 19, 2021

Notes:
-- Recorded by Don Pearson and Dan Healy
-- With Clarence Clemons on sax
-- Drums with Baba Olatunji, Sikiru Adepoju and Kitaro
-- I used the PCM Master (shind=140702) to cover the tape flips
-- This is 152286 24 -> 16 @ 44.1

Set 1:
01 - Tuning
02 - Let The Good Times Roll >
03 - Franklin's Tower
04 - Wang Dang Doodle
05 - West L.A. Fadeaway
06 - When I Paint My Masterpiece
07 - Cold Rain And Snow
08 - Cassidy >
09 - Don't Ease Me In

Set 2:
10 - Midnight Madness >
11 - Sugar Magnolia >
12 - Touch Of Gray >
13 - Man Smart (Woman Smarter) >
14 - Terrapin Station >
15 - Drums >
16 - Space >
17 - The Wheel >
18 - Gimme Some Lovin' >
19 - All Along The Watchtower >
20 - Morning Dew >
21 - Sunshine Daydream

Encore:
22 - Encore Break
23 - Wharf Rat >
24 - Goin' Down The Road Feeling Bad >
25 - One More Saturday Night


SHNTOOL OUTPUT:    length     expanded size    cdr  WAVE problems  fmt   ratio  filename
     0:53.64        9499772 B   ---   --   ---xx   flac  0.5460  01 Tuning.flac
     5:08.67       54488828 B   ---   --   ---xx   flac  0.6458  02 Let The Good Times Roll.flac
     8:53.07       94037708 B   ---   --   ---xx   flac  0.6485  03 Franklin's Tower.flac
     7:10.06       75866156 B   ---   --   ---xx   flac  0.6327  04 Wang Dang Doodle.flac
     9:35.40      101524124 B   ---   --   ---xx   flac  0.6094  05 West LA Fadeaway.flac
     6:29.02       68624348 B   ---   --   ---xx   flac  0.6127  06 When I Paint My Masterpiece.flac
     7:19.73       77611340 B   ---   --   ---xx   flac  0.6153  07 Cold Rain And Snow.flac
     6:47.40       71888924 B   ---   --   ---xx   flac  0.6560  08 Cassidy.flac
     3:46.54       39993452 B   ---   --   ---xx   flac  0.6547  09 Don't Ease Me In.flac
     4:20.10       45887564 B   ---   --   ---xx   flac  0.6213  10 Midnight Madness.flac
     5:59.06       63341756 B   ---   --   ---xx   flac  0.6606  11 Sugar Magnolia.flac
     6:21.71       67375436 B   ---   --   ---xx   flac  0.6630  12 Touch Of Grey.flac
     8:45.71       92777036 B   ---   --   ---xx   flac  0.6639  13 Man Smart (Woman Smarter).flac
    12:33.17      132869228 B   ---   --   ---xx   flac  0.6252  14 Terrapin Station.flac
    17:03.41      180553676 B   ---   --   ---xx   flac  0.5828  15 Drums.flac
    10:03.51      106489196 B   ---   --   ---xx   flac  0.5376  16 Space.flac
     6:04.56       64341356 B   ---   --   ---xx   flac  0.6142  17 The Wheel.flac
     4:43.21       49970636 B   ---   --   ---xx   flac  0.6612  18 Gimme Some Lovin'.flac
     5:22.08       56819660 B   ---   --   ---xx   flac  0.6606  19 All Along The Watchtower.flac
    10:52.37      115099868 B   ---   --   ---xx   flac  0.6054  20 Morning Dew.flac
     5:57.72       63144188 B   ---   --   ---xx   flac  0.6472  21 Sunshine Daydream.flac
     8:30.34       90044012 B   ---   --   ---xx   flac  0.5530  22 Encore Break.flac
     8:25.36       89166716 B   ---   --   ---xx   flac  0.6198  23 Wharf Rat.flac
     6:10.25       65326844 B   ---   --   ---xx   flac  0.6452  24 Goin' Down The Road Feeling Bad.flac
     5:04.58       53762060 B   ---   --   ---xx   flac  0.6656  25 One More Saturday Night.flac
   182:23.67     1930503884 B                            0.6217  (25 files)



More information about the bittorrent mailing list