[bittorrent] gd1988-12-29.152582.UltraMatrix.sbd.cm.miller.t.flac16

Automated Mailer noreply-bt.e at etree.org
Sat Jun 5 20:48:48 UTC 2021


Band:           Grateful Dead
Torrent Name:   gd1988-12-29.152582.UltraMatrix.sbd.cm.miller.t.flac16
Uploaded by:    norm
DB Link:        
Details:        http://bt.etree.org/details.php?id=612850

Contact the seeder at http://db.etree.org/norm

If the link to this show does not work, it was probably removed for
being non-trade-friendly.

Description / text file:
-------------------------
Grateful Dead - December 29, 1988
Oakland Coliseum Arena - Oakland, CA

Recording Info:
UltraMatrix SBD > Cassette Master (TDK MA-XG)

Transfer Info:
Cassette Master (Nakamichi CR-7A) > Tascam DA-3000 (DSF 1-bit/5.6MHz) >
Tascam Hi-Res Editor (WAV 24-bit/96k) > Adobe Audition 2020 > Samplitude Pro X5 Suite > FLAC/24
(1 DVD FLAC)

All Transfers and Mastering by Charlie Miller
charliemiller87 at earthlink.net
April 17, 2021

Notes:
-- Recorded by Don Pearson and Dan Healy
-- I used the PCM Master (shind=140701) to cover the tape flips
-- This is 152285 24 -> 16 @ 44.1

Set 1:
01 - Tuning
02 - Hell In A Bucket >
03 - Sugaree
04 - New Minglewood Blues
05 - Friend Of The Devil
06 - Queen Jane Approximately
07 - To Lay Me Down >
08 - Let It Grow

Set 2:
09 - Tuning
10 - Playing In The Band >
11 - Crazy Fingers >
12 - Samson And Delilah >
13 - Playing Jam >
14 - Eyes Of The World >
15 - Drums >
16 - Space >
17 - The Other One >
18 - Stella Blue >
19 - Throwing Stones >
20 - Not Fade Away

Encore:
21 - Quinn The Eskimo (The Mighty Quinn)


SHNTOOL OUTPUT:
    length     expanded size    cdr  WAVE problems  fmt   ratio  filename
     2:30.58       26596460 B   ---   --   ---xx   flac  0.5488  01 Tuning.flac
     6:08.50       65032844 B   ---   --   ---xx   flac  0.6717  02 Hell In A Bucket.flac
    11:38.22      123178988 B   ---   --   ---xx   flac  0.6365  03 Sugaree.flac
     9:14.63       97873820 B   ---   --   ---xx   flac  0.6391  04 New Minglewood Blues.flac
     9:04.01       95963996 B   ---   --   ---xx   flac  0.6413  05 Friend Of The Devil.flac
     7:18.61       77406716 B   ---   --   ---xx   flac  0.6361  06 Queen Jane Approximately.flac
     7:12.46       76313036 B   ---   --   ---xx   flac  0.6222  07 To Lay Me Down.flac
    12:54.63      136681820 B   ---   --   ---xx   flac  0.6586  08 Let It Grow.flac
     1:41.46       17924636 B   ---   --   ---xx   flac  0.5256  09 Tuning.flac
     7:51.01       83086796 B   ---   --   ---xx   flac  0.6668  10 Playing In The Band.flac
     8:12.09       86810012 B   ---   --   ---xx   flac  0.6521  11 Crazy Fingers.flac
     8:12.52       86911148 B   ---   --   ---xx   flac  0.6742  12 Samson And Delilah.flac
     3:09.34       33419612 B   ---   --   ---xx   flac  0.6412  13 Playing Jam.flac
     8:31.47       90250988 B   ---   --   ---xx   flac  0.6676  14 Eyes Of The World.flac
     9:35.52      101552348 B   ---   --   ---xx   flac  0.5707  15 Drums.flac
     5:49.15       61598924 B   ---   --   ---xx   flac  0.5792  16 Space.flac
     6:56.63       73530620 B   ---   --   ---xx   flac  0.6418  17 The Other One.flac
     7:33.51       80029196 B   ---   --   ---xx   flac  0.6282  18 Stella Blue.flac
     9:14.58       97862060 B   ---   --   ---xx   flac  0.6582  19 Throwing Stones.flac
     7:50.04       82917452 B   ---   --   ---xx   flac  0.6383  20 Not Fade Away.flac
     5:00.52       53042348 B   ---   --   ---xx   flac  0.6672  21 Quinn The Eskimo (The Mighty Quinn).flac
   155:42.23     1647983820 B                            0.6390  (21 files)



More information about the bittorrent mailing list