[bittorrent] gd1988-09-20.152581.UltraMatrix.sbd.cm.miller.t.flac16

Automated Mailer noreply-bt.e at etree.org
Sat Jun 5 20:00:01 UTC 2021


Band:           Grateful Dead
Torrent Name:   gd1988-09-20.152581.UltraMatrix.sbd.cm.miller.t.flac16
Uploaded by:    norm
DB Link:        
Details:        http://bt.etree.org/details.php?id=612849

Contact the seeder at http://db.etree.org/norm

If the link to this show does not work, it was probably removed for
being non-trade-friendly.

Description / text file:
-------------------------
Grateful Dead - September 20, 1988
Madison Square Garden - New York, NY

Recording Info:
UltraMatrix SBD > Cassette Master (TDK MA-XG)

Transfer Info:
Cassette Master (Nakamichi CR-7A) > Tascam DA-3000 (DSF 1-bit/5.6MHz) >
Tascam Hi-Res Editor (WAV 24-bit/96k) > Izotope RX8 Advanced > Samplitude Pro X5 Suite > FLAC/24
(1 DVD FLAC)

Patch Info:
(FOB) Schoeps > DAT (shnid=138359) supplies:
Space (1:04 - 1:13)

All Transfers and Mastering by Charlie Miller
charliemiller87 at earthlink.net
April 14, 2021

Notes:
-- Recorded by Don Pearson and Dan Healy
-- Thanks to Rich Gastwirt and Sirmick for the patch source
-- This is 152253 24 -> 16 @ 44.1

Set 1:
01 - Tuning
02 - Jack Straw >
03 - Althea
04 - Mama Tried >
05 - Mexicali Blues
06 - Peggy-O
07 - When I Paint My Masterpiece
08 - Louie Louie >
09 - The Music Never Stopped

Set 2:
10 - Bertha >
11 - Cumberland Blues
12 - Looks Like Rain >
13 - Terrapin Station >
14 - Drums >
15 - Space >
16 - Truckin' >
17 - Goin' Down The Road Feeling Bad >
18 - Morning Dew

Encore:
19 - Encore Break
20 - Johnny B. Goode


SHNTOOL OUTPUT:
    length     expanded size    cdr  WAVE problems  fmt   ratio  filename
     5:51.34       61996412 B   ---   --   ---xx   flac  0.5552  01 Tuning.flac
     6:18.12       66707468 B   ---   --   ---xx   flac  0.6390  02 Jack Straw.flac
     8:16.09       87515612 B   ---   --   ---xx   flac  0.6189  03 Althea.flac
     2:43.11       28779116 B   ---   --   ---xx   flac  0.6525  04 Mama Tried.flac
     7:18.02       77267948 B   ---   --   ---xx   flac  0.6334  05 Big River.flac
     6:49.73       72319340 B   ---   --   ---xx   flac  0.6223  06 Peggy-O.flac
     5:30.05       58223804 B   ---   --   ---xx   flac  0.6202  07 When I Paint My Masterpiece.flac
     8:15.21       87367436 B   ---   --   ---xx   flac  0.6258  08 Louie Louie.flac
     9:20.20       98831084 B   ---   --   ---xx   flac  0.6224  09 The Music Never Stopped.flac
     7:25.22       78549788 B   ---   --   ---xx   flac  0.6199  10 Bertha.flac
     5:08.62       54477068 B   ---   --   ---xx   flac  0.6426  11 Cumberland.flac
     9:35.20      101477084 B   ---   --   ---xx   flac  0.5994  12 Looks Like Rain.flac
    12:14.32      129552908 B   ---   --   ---xx   flac  0.5981  13 Terrapin Station.flac
    11:32.32      122144108 B   ---   --   ---xx   flac  0.5437  14 Drums.flac
     9:07.47       96601388 B   ---   --   ---xx   flac  0.5470  15 Space.flac
     6:15.05       66161804 B   ---   --   ---xx   flac  0.6290  16 Truckin'.flac
     6:28.10       68466764 B   ---   --   ---xx   flac  0.6269  17 Goin' Down The Road Feeling Bad.flac
    10:27.26      110663996 B   ---   --   ---xx   flac  0.5846  18 Morning Dew.flac
     2:23.23       25279340 B   ---   --   ---xx   flac  0.5068  19 Encore Break.flac
     4:24.13       46600220 B   ---   --   ---xx   flac  0.6281  20 Johnny B Goode.flac
   145:24.29     1538982688 B                            0.6035  (20 files)



More information about the bittorrent mailing list