[bittorrent] gd1988-08-26.152580.UltraMatrix.sbd.cm.miller.t.flac16

Automated Mailer noreply-bt.e at etree.org
Sat Jun 5 18:19:59 UTC 2021


Band:           Grateful Dead
Torrent Name:   gd1988-08-26.152580.UltraMatrix.sbd.cm.miller.t.flac16
Uploaded by:    norm
DB Link:        
Details:        http://bt.etree.org/details.php?id=612848

Contact the seeder at http://db.etree.org/norm

If the link to this show does not work, it was probably removed for
being non-trade-friendly.

Description / text file:
-------------------------
Grateful Dead - August 26, 1988
Tacoma Dome - Tacoma, WA

Recording Info:
UltraMatrix SBD > Cassette Master (TDK MA-XG90)

Transfer Info:
Cassette Master (Nakamichi CR-7A) > Tascam DA-3000 (DSF 1-bit/5.6 MHz) >
dBpoweramp > Adobe Audition CC2015 > Samplitude Pro X3 Suite > Izotope RX8 Advanced > FLAC/24
(1 DVD FLAC)

All Transfers and Mastering By Charlie Miller
charliemiller87 at earthlink.net
May 1, 2021

Notes:
-- I repaired the flutter from shnid=143062
-- Recorded by Don Pearson and Dan Healy
-- Multiple ultra masters were used to make this show complete
-- Thanks to Scott Clugston, Jim Blackwood and Steve Block for their help with this project
-- This is 152393 24 -> 16 @ 44.1

Set 1:
01 - Tuning
02 - Hell In A Bucket >
03 - Sugaree
04 - Never Trust A Woman
05 - Iko Iko
06 - Walkin' Blues
07 - When Push Comes To Shove
08 - When I Paint My Masterpiece
09 - Row Jimmy >
10 - The Music Never Stopped

Set 2:
11 - Tuning
12 - China Cat Sunflower >
13 - I Know You Rider
14 - Playing In The Band >
15 - Uncle John's Band >
16 - Drums >
17 - Space >
18 - Touch Of Grey >
19 - I Need A Miracle >
20 - Black Peter >
21 - Turn On Your Lovelight

Encore:
22 - Encore Break
23 - Black Muddy River


SHNTOOL OUTPUT:
    length     expanded size    cdr  WAVE problems  fmt   ratio  filename
     1:28.55       15652604 B   ---   --   ---xx   flac  0.4922  01 Tuning.flac
     6:02.33       63934460 B   ---   --   ---xx   flac  0.6365  02 Hell In A Bucket.flac
    13:16.19      140459132 B   ---   --   ---xx   flac  0.6466  03 Sugaree.flac
     9:54.42      104880428 B   ---   --   ---xx   flac  0.6134  04 Never Trust A Woman.flac
     8:09.23       86313740 B   ---   --   ---xx   flac  0.6477  05 Iko Iko.flac
     6:33.42       69424028 B   ---   --   ---xx   flac  0.6424  06 Walkin' Blues.flac
     4:44.73       50269340 B   ---   --   ---xx   flac  0.6736  07 When Push Comes To Shove.flac
     5:02.70       53437484 B   ---   --   ---xx   flac  0.6195  08 When I Paint My Masterpiece.flac
     9:18.55       98560604 B   ---   --   ---xx   flac  0.6168  09 Row Jimmy.flac
     7:30.27       79443548 B   ---   --   ---xx   flac  0.6224  10 The Music Never Stopped.flac
     0:34.50        6115244 B   ---   --   ---xx   flac  0.4659  11 Tuning.flac
     6:05.65       64538924 B   ---   --   ---xx   flac  0.6361  12 China Cat Sunflower.flac
     5:18.21       56144636 B   ---   --   ---xx   flac  0.6316  13 I Know You Rider.flac
     9:35.69      101592332 B   ---   --   ---xx   flac  0.6428  14 Playing In The Band.flac
     8:17.50       87788444 B   ---   --   ---xx   flac  0.6325  15 Uncle John's Band.flac
     9:50.55      104205404 B   ---   --   ---xx   flac  0.5565  16 Drums.flac
     7:34.45       80191484 B   ---   --   ---xx   flac  0.5705  17 Space.flac
     6:58.17       73775228 B   ---   --   ---xx   flac  0.6534  18 Touch Of Grey.flac
     3:15.66       34553276 B   ---   --   ---xx   flac  0.6310  19 I Need A Miracle.flac
     9:40.34      102392012 B   ---   --   ---xx   flac  0.6029  20 Black Peter.flac
     6:03.57       64167308 B   ---   --   ---xx   flac  0.6314  21 Turn On Your Lovelight.flac
     3:40.58       38944460 B   ---   --   ---xx   flac  0.5045  22 Encore Break.flac
     8:11.21       86661836 B   ---   --   ---xx   flac  0.5781  23 Black Muddy River.flac
   157:09.72     1663445956 B                            0.6175  (23 files)




More information about the bittorrent mailing list