[bittorrent] gd1988-04-24.152579.UltraMatrix.sbd.cm.miller.t.flac16

Automated Mailer noreply-bt.e at etree.org
Sat Jun 5 16:49:03 UTC 2021


Band:           Grateful Dead
Torrent Name:   gd1988-04-24.152579.UltraMatrix.sbd.cm.miller.t.flac16
Uploaded by:    norm
DB Link:        
Details:        http://bt.etree.org/details.php?id=612847

Contact the seeder at http://db.etree.org/norm

If the link to this show does not work, it was probably removed for
being non-trade-friendly.

Description / text file:
-------------------------
Grateful Dead - April 24, 1988
Irvine Meadows Amphitheatre - Irvine, CA

Recording Info:
UltraMatrix SBD > Cassette Master (TDK MA-XG)

Transfer Info:
Cassette Master (Nakamichi CR-7A) > Tascam DA-3000 (DSF 1-bit/5.6MHz) >
Tascam Hi-Res Editor (WAV 24-bit/96k) > Samplitude Pro X6 Suite > FLAC/24
(1 DVD FLAC)

Patch Info:
(FOB) Schoeps PCM > DAT > CD (shnid=16924) supplies:
When I Paint My Masterpiece (5:05 - 5:44)
Space (1:31 - 2:11)

All Transfers and Mastering by Charlie Miller
charliemiller87 at earthlink.net
May 18, 2021

Notes:
-- Recorded by Don Pearson and Dan Healy
-- Thanks to Paul B. and Steven Leeds for the patch source
-- This is 152480 24 -> 16 @ 44.1

Set 1:
01 - Touch Of Grey
02 - Little Red Rooster
03 - Row Jimmy
04 - Far From Me
05 - When I Paint My Masterpiece
06 - Bird Song >
07 - Promised Land

Set 2:
08 - Tuning
09 - Box Of Rain >
10 - Samson And Delilah
11 - Iko Iko >
12 - Looks Like Rain >
13 - Terrapin Station >
14 - Drums >
15 - Space >
16 - The Other One >
17 - Wharf Rat >
18 - Throwing Stones >
19 - Not Fade Away

Encore:
20 - The Mighty Quinn (Quinn The Eskimo)


SHNTOOL OUTPUT:
    length     expanded size    cdr  WAVE problems  fmt   ratio  filename
     6:38.49       70322492 B   ---   --   ---xx   flac  0.5864  01 Touch Of Grey.flac
     9:49.00      103899644 B   ---   --   ---xx   flac  0.5717  02 Little Red Rooster.flac
     9:33.48      101190140 B   ---   --   ---xx   flac  0.5569  03 Row Jimmy.flac
     4:03.21       42914636 B   ---   --   ---xx   flac  0.6115  04 Far From Me.flac
     6:13.57       65931308 B   ---   --   ---xx   flac  0.5668  05 When I Paint My Masterpiece.flac
    10:29.12      110983868 B   ---   --   ---xx   flac  0.5993  06 Bird Song.flac
     4:31.67       47962028 B   ---   --   ---xx   flac  0.6029  07 Promised Land.flac
     0:38.61        6846716 B   ---   --   ---xx   flac  0.4920  08 Tuning.flac
     4:46.53       50575100 B   ---   --   ---xx   flac  0.6065  09 Box Of Rain.flac
     7:00.36       74172716 B   ---   --   ---xx   flac  0.5997  10 Samson And Delilah.flac
     5:44.62       60827468 B   ---   --   ---xx   flac  0.6055  11 Iko Iko.flac
     9:02.47       95719388 B   ---   --   ---xx   flac  0.5673  12 Looks Like Rain.flac
    10:31.27      111371948 B   ---   --   ---xx   flac  0.5976  13 Terrapin Station.flac
     7:36.53       80563100 B   ---   --   ---xx   flac  0.5270  14 Drums.flac
     4:04.17       43081628 B   ---   --   ---xx   flac  0.4850  15 Space.flac
     8:56.12       94578668 B   ---   --   ---xx   flac  0.5437  16 The Other One.flac
     7:43.08       81692060 B   ---   --   ---xx   flac  0.5764  17 Wharf Rat.flac
     9:00.38       95345420 B   ---   --   ---xx   flac  0.5999  18 Throwing Stones.flac
     9:43.20      102888284 B   ---   --   ---xx   flac  0.5482  19 Not Fade Away.flac
     6:14.58       66110060 B   ---   --   ---xx   flac  0.5712  20 The Mighty Quinn (Quinn The Eskimo).flac
   142:22.71     1506976672 B                            0.5743  (20 files)




More information about the bittorrent mailing list