[bittorrent] gd1988-04-23.152578.UltraMatrix.sbd.cm.miller.t.flac16

Automated Mailer noreply-bt.e at etree.org
Sat Jun 5 14:29:34 UTC 2021


Band:           Grateful Dead
Torrent Name:   gd1988-04-23.152578.UltraMatrix.sbd.cm.miller.t.flac16
Uploaded by:    norm
DB Link:        
Details:        http://bt.etree.org/details.php?id=612845

Contact the seeder at http://db.etree.org/norm

If the link to this show does not work, it was probably removed for
being non-trade-friendly.

Description / text file:
-------------------------
Grateful Dead - April 23, 1988
Irvine Meadows Amphitheatre - Irvine, CA

Recording Info:
UltraMatrix SBD > Cassette Master (TDK MA-XG)

Transfer Info:
Cassette Master (Nakamichi CR-7A) > Tascam DA-3000 (DSF 1-bit/5.6MHz) >
Tascam Hi-Res Editor (WAV 24-bit/96k) > Samplitude Pro X5 Suite > FLAC/24
(1 DVD FLAC)

All Transfers and Mastering by Charlie Miller
charliemiller87 at earthlink.net
April 25, 2021

Notes:
-- Recorded by Don Pearson and Dan Healy
-- Multiple masters were used to make this show complete
-- This is 152337 24 -> 16 @ 44.1

Set 1:
01 - Tuning
02 - Hell In A Bucket
03 - Cold Rain And Snow
04 - Hey Pocky Way
05 - West L.A. Fadeaway
06 - Me And My Uncle >
07 - Big River
08 - To Lay Me Down
09 - Cassidy >
10 - Don't Ease Me In

Set 2:
11 - Tuning
12 - Playing In The Band >
13 - Crazy Fingers >
14 - Uncle John's Band >
15 - Drums >
16 - Space >
17 - Goin' Down The Road Feeling Bad >
18 - I Need A Miracle >
19 - Dear Mr. Fantasy >
20 - Hey Jude >
21 - Stella Blue >
22 - Turn On Your Lovelight

Encore:
23 - Tuning
24 - Knockin' On Heavens Door


SHNTOOL OUTPUT:
   length     expanded size    cdr  WAVE problems  fmt   ratio  filename
    0:58.26       10292396 B   ---   --   ---xx   flac  0.4717  01 Tuning.flac
    6:06.49       64677692 B   ---   --   ---xx   flac  0.6060  02 Hell In A Bucket.flac
   10:04.33      106623260 B   ---   --   ---xx   flac  0.5436  03 Cold Rain And Snow.flac
    6:01.02       63685148 B   ---   --   ---xx   flac  0.6206  04 Hey Pocky Way.flac
    9:20.13       98814620 B   ---   --   ---xx   flac  0.5485  05 West LA Fadeaway.flac
    3:10.37       33603068 B   ---   --   ---xx   flac  0.5939  06 Me And My Uncle.flac
    5:19.03       56278700 B   ---   --   ---xx   flac  0.5997  07 Big River.flac
    9:00.59       95394812 B   ---   --   ---xx   flac  0.5637  08 To Lay Me Down.flac
    6:33.45       69431084 B   ---   --   ---xx   flac  0.6081  09 Cassidy.flac
    3:49.01       40397996 B   ---   --   ---xx   flac  0.5959  10 Don't Ease Me In.flac
    2:40.18       28266380 B   ---   --   ---xx   flac  0.4948  11 Tuning.flac
    7:30.40       79474124 B   ---   --   ---xx   flac  0.6020  12 Playing In The Band.flac
    8:10.09       86457212 B   ---   --   ---xx   flac  0.5847  13 Crazy Fingers.flac
    9:11.30       97267004 B   ---   --   ---xx   flac  0.6150  14 Uncle John's Band.flac
   10:17.26      108899996 B   ---   --   ---xx   flac  0.5118  15 Drums.flac
    9:15.38       97991420 B   ---   --   ---xx   flac  0.5303  16 Space.flac
    6:14.57       66107708 B   ---   --   ---xx   flac  0.5818  17 Goin' Down The Road Feeling Bad.flac
    3:26.46       36446636 B   ---   --   ---xx   flac  0.6228  18 I Need A Miracle.flac
    5:08.12       54359468 B   ---   --   ---xx   flac  0.6107  19 Dear Mr Fantasy.flac
    1:36.30       17005004 B   ---   --   ---xx   flac  0.6190  20 Hey Jude.flac
    7:59.65       84648524 B   ---   --   ---xx   flac  0.5524  21 Stella Blue.flac
    5:44.38       60771020 B   ---   --   ---xx   flac  0.6143  22 Turn On Your Lovelight.flac
    0:58.27       10294748 B   ---   --   ---xx   flac  0.4840  23 Tuning.flac
    8:27.10       89458364 B   ---   --   ---xx   flac  0.5597  24 Knockin' On Heaven's Door.flac
  147:04.39     1556646384 B                            0.5739  (24 files)




More information about the bittorrent mailing list