[bittorrent] gd1988-04-04.152576.UltraMatrix.sbd.cm.miller.t.flac16

Automated Mailer noreply-bt.e at etree.org
Fri Jun 4 21:55:16 UTC 2021


Band:           Grateful Dead
Torrent Name:   gd1988-04-04.152576.UltraMatrix.sbd.cm.miller.t.flac16
Uploaded by:    norm
DB Link:        
Details:        http://bt.etree.org/details.php?id=612842

Contact the seeder at http://db.etree.org/norm

If the link to this show does not work, it was probably removed for
being non-trade-friendly.

Description / text file:
-------------------------
Grateful Dead - April 4, 1988
Civic Center - Hartford, CT

Recording Info:
UltraMatrix SBD > Cassette Master (TDK MA-R)

Transfer Info:
Cassette Master (Nakamichi CR-7A) > Tascam DA-3000 (DFF 1-bit/5.6MHz >
Tascam Hi-Res Editor (WAV 24-bit/96k) > Adobe Audition 2020 > Samplitude Pro X5 Suite > FLAC/24
(1 DVD FLAC)

All Transfers and Mastering by Charlie Miller
charliemiller87 at earthlink.net
January 16, 2021

Notes:
-- Recorded by Don Pearson and Dan Healy
-- Thanks to Jim Voss for his help with this project
-- Multiple masters were used to make this show complete
-- This is 152203 24 -> 16 @ 44.1

Set 1:
01 - Tuning
02 - Alabama Getaway >
03 - Johnny B. Goode
04 - Never Trust A Woman
05 - They Love Each Other
06 - Queen Jane Approximately
07 - When Push Comes To Shove
08 - Cassidy >
09 - Don't Ease Me In

Set 2:
10 - Touch Of Grey >
11 - Looks Like Rain >
12 - Truckin' >
13 - He's Gone >
14 - Drums >
15 - Space >
16 - The Other One >
17 - Stella Blue >
18 - Good Lovin' >
19 - Dear Mr. Fantasy >
20 - Hey Jude

Encore:
21 - U.S. Blues


SHNTOOL OUTPUT:
    length     expanded size    cdr  WAVE problems  fmt   ratio  filename
     0:54.26        9586796 B   ---   --   ---xx   flac  0.5689  01 Tuning.flac
     5:38.68       59783180 B   ---   --   ---xx   flac  0.6673  02 Alabama Getaway.flac
     4:43.53       50045900 B   ---   --   ---xx   flac  0.6733  03 Johnny B Goode.flac
     7:28.45       79133084 B   ---   --   ---xx   flac  0.6339  04 Never Trust A Woman.flac
     7:18.50       77380844 B   ---   --   ---xx   flac  0.6350  05 They Love Each Other.flac
     5:32.53       58689500 B   ---   --   ---xx   flac  0.6507  06 Queen Jane Approximately.flac
     6:10.30       65338604 B   ---   --   ---xx   flac  0.6353  07 When Push Comes To Shove.flac
     6:04.54       64336652 B   ---   --   ---xx   flac  0.6673  08 Cassidy.flac
     4:50.48       51268940 B   ---   --   ---xx   flac  0.6513  09 Don't Ease Me In.flac
     6:31.16       69010076 B   ---   --   ---xx   flac  0.6784  10 Touch Of Grey.flac
     9:57.53      105435500 B   ---   --   ---xx   flac  0.6490  11 Looks Like Rain.flac
     6:27.24       68323292 B   ---   --   ---xx   flac  0.6898  12 Truckin'.flac
    12:54.39      136625372 B   ---   --   ---xx   flac  0.6260  13 He's Gone.flac
     8:30.67       90121628 B   ---   --   ---xx   flac  0.5534  14 Drums.flac
     4:26.38       47011820 B   ---   --   ---xx   flac  0.5959  15 Space.flac
     8:19.09       88044812 B   ---   --   ---xx   flac  0.6761  16 The Other One.flac
     8:39.34       91631612 B   ---   --   ---xx   flac  0.6271  17 Stella Blue.flac
     4:53.39       51776972 B   ---   --   ---xx   flac  0.6737  18 Good Lovin'.flac
     5:03.27       53512748 B   ---   --   ---xx   flac  0.6739  19 Dear Mr Fantasy.flac
     2:11.29       23176652 B   ---   --   ---xx   flac  0.6722  20 Hey Jude.flac
     5:35.71       59261036 B   ---   --   ---xx   flac  0.6684  21 US Blues.flac
   132:13.48     1399495020 B                            0.6454  (21 files)




More information about the bittorrent mailing list