[bittorrent] GD 5/29/80 [152540] - Patched SBD - Set 2 - Civic Center - Des Moines, IA 1644 (Taper's Section / GEMS)

Automated Mailer noreply-bt.e at etree.org
Thu Jun 3 23:53:03 UTC 2021


Band:           Grateful Dead
Torrent Name:   GD 5/29/80 [152540] - Patched SBD - Set 2 - Civic Center - Des Moines, IA 1644 (Taper's Section / GEMS)
Uploaded by:    grv68
DB Link:        
Details:        http://bt.etree.org/details.php?id=612841

Contact the seeder at http://db.etree.org/grv68

If the link to this show does not work, it was probably removed for
being non-trade-friendly.

Description / text file:
-------------------------
Grateful Dead
Thursday May 29, 1980
Des Moines Civic Center
Des Moines, Iowa

Taper's Section Set Two SBD MP3 patched with GEMS AUD Source ID 152534

The reason we share this is for 3-fold:
1. The MP3 soundboard at Taper's Section does not circulate in any SBD shnid and we have a New FOB AUD to share and work with, the first quality tape of this great show. We hope the complete SBD surfaces.
2. The MP3 has issues where every track but Estimated Prophet had one channel compeletely out of phase and the left channel was clipped and much louder.  These has been repaired and the sonic difference is striking..
3. 17 minutes including the Other One Jam plus Drums and Space, as well as the end of Johynny B. Goode and The US Blues Encore were missing.  This all has been patched in and sounds really nice.

The final shared format is FLAC level 8 16bit 44.1kHz but again this was sourced from a high quality MP3

Originally shared at www.shnflac.net May 2021.

Set Two
Feel Like a Stranger
Ship of Fools
Estimated Prophet >
Eyes of the World >
The Other One Jam >
Drums >
Space >
Lost Sailor >
Saint of Circumstance >
Comes a Time >
Around & Around >
Johnny B. Goode

Encore:
U.S. Blues

**gems**
    length     expanded size    cdr  WAVE problems  fmt   ratio  filename
     8:52.53       93970588 B   -b-   --   ---xx   flac  0.5125  01 - Feel Like a Stranger.flac
     9:14.31       97799152 B   -b-   --   ---xx   flac  0.4754  02 - Ship of Fools.flac
    12:16.15      129864788 B   -b-   --   ---xx   flac  0.5185  03 - Estimated Prophet.flac
    10:23.09      109917644 B   -b-   --   ---xx   flac  0.5343  04 - Eyes of the World.flac
     4:23.64       46543760 B   -b-   --   ---xx   flac  0.5825  05 - The Other One Jam.flac
     9:27.72      100188996 B   -b-   --   ---xx   flac  0.5649  06 - Drums.flac
     2:32.31       26885388 B   -b-   --   ---xx   flac  0.5603  07 - Space.flac
     5:44.53       60805376 B   -b-   --   ---xx   flac  0.5095  08 - Lost Sailor.flac
     5:57.00       62975360 B   -b-   --   ---xx   flac  0.5631  09 - Saint of Circumstance.flac
     9:16.12       98106668 B   ---   --   ---xx   flac  0.4713  10 - Comes a Time.flac
     3:50.64       40722060 B   -b-   --   ---xx   flac  0.5268  11 - Around & Around.flac
     4:24.42       46667816 B   -b-   --   ---xx   flac  0.6075  12 - Johnny B. Goode.flac
     5:25.09       57351932 B   -b-   --   ---xx   flac  0.6054  13 - U.S. Blues.flac
    91:49.05      971799528 B                            0.5317  (13 files)




More information about the bittorrent mailing list