[bittorrent] GD 5/29/80 [152539] - AUD - Civic Center - Des Moines, IA 1648 (GEMS)

Automated Mailer noreply-bt.e at etree.org
Thu Jun 3 23:50:53 UTC 2021


Band:           Grateful Dead
Torrent Name:   GD 5/29/80 [152539] - AUD - Civic Center - Des Moines, IA 1648 (GEMS)
Uploaded by:    grv68
DB Link:        
Details:        http://bt.etree.org/details.php?id=612840

Contact the seeder at http://db.etree.org/grv68

If the link to this show does not work, it was probably removed for
being non-trade-friendly.

Description / text file:
-------------------------
Grateful Dead
Thursday May 29, 1980
Des Moines Civic Center
Des Moines, Iowa

Roughly 10th row FOB master audience tapes from an Anonymous Benefactor,
actual gear lost to the fog of memory, transferred at 24 bit 96 kHz

Speed Correction by Jason Chastain
Critical Listening and Track FLAC, Pack by Steven Gravel
Mastering by Jamie Waddell

16 Bit 48 kHz FLAC Level 8 from 24 Bit 96 kHz source via Izotope RX8 with MBIT+ dither

- this is the first quality recording of this show
- fantastic tape flip in drums space, very little music lost, crossfade applied

originally shared at www.shnflac.net May 2021

Debut broadcast of this fine recording on 91.3 FM KXCI Tucson on Dead Air, May 30, 2021 - hosted by Jim Blackwood and Jamie Waddell. https://spinitron.com/KXCI/pl/13363901/Dead-Air

Set 1:
Alabama Getaway >
Promised Land
They Love Each Other
El Paso >
Mexicali Blues
Candyman
New Minglewood Blues
Althea
Far From Me
Let It Grow >
Deal

Set 2:
Feel Like a Stranger
Ship of Fools
Estimated Prophet >
Eyes of the World >
The Other One Jam >
Drums >
Space >
Lost Sailor >
Saint of Circumstance >
Comes a Time >
Around & Around >
Johnny B. Goode

Encore:
U.S. Blues

**gems**

    length     expanded size    cdr  WAVE problems  fmt   ratio  filename
     5:11.400      59788844 B   cxx   --   ---xx   flac  0.6402  01 - Alabama Getaway.flac
     4:37.400      53260844 B   cxx   --   ---xx   flac  0.6451  02 - Promised Land.flac
     7:46.856      89636372 B   cxx   --   ---xx   flac  0.6079  03 - They Love Each Other.flac
     4:09.437      47892036 B   cxx   --   ---xx   flac  0.6261  04 - El Paso.flac
     4:48.019      55299780 B   cxx   --   ---xx   flac  0.6337  05 - Mexicali Blues.flac
     7:49.476      90139348 B   cxx   --   ---xx   flac  0.6057  06 - Candyman.flac
     7:47.412      89743092 B   cxx   --   ---xx   flac  0.6305  07 - New Minglewood Blues.flac
     9:08.412     105295148 B   cxx   --   ---xx   flac  0.6037  08 - Althea.flac
     4:37.788      53335332 B   cxx   --   ---xx   flac  0.6402  09 - Far From Me.flac
    10:07.649     116668644 B   cxx   --   ---xx   flac  0.6411  10 - Let It Grow.flac
     5:07.351      59011444 B   cxx   --   ---xx   flac  0.6371  11 - Deal.flac
     8:33.199      98534292 B   cxx   --   ---xx   flac  0.6377  12 - Feel Like a Stranger.flac
     9:05.457     104727716 B   cxx   --   ---xx   flac  0.5933  13 - Ship of Fools.flac
    12:11.883     140521628 B   cxx   --   ---xx   flac  0.6295  14 - Estimated Prophet.flac
    10:26.206     120231660 B   cxx   --   ---xx   flac  0.6289  15 - Eyes of the World.flac
     4:23.959      50680236 B   cxx   --   ---xx   flac  0.6304  16 - The Other One Jam.flac
     9:27.815     109020548 B   cxx   --   ---xx   flac  0.6018  17 - Drums.flac
     2:32.378      29256564 B   cxx   --   ---xx   flac  0.6600  18 - Space.flac
     5:45.102      66259700 B   cxx   --   ---xx   flac  0.6195  19 - Lost Sailor.flac
     5:57.360      68613164 B   cxx   --   ---xx   flac  0.6515  20 - Saint of Circumstance.flac
     9:16.908     106926428 B   cxx   --   ---xx   flac  0.5864  21 - Comes a Time.flac
     3:51.297      44409124 B   cxx   --   ---xx   flac  0.6574  22 - Around & Around.flac
     4:24.937      50867924 B   cxx   --   ---xx   flac  0.6722  23 - Johnny B. Goode.flac
     5:24.904      62381564 B   cxx   --   ---xx   flac  0.6586  24 - U.S. Blues.flac
   162:32.606    1872501432 B                            0.6260  (24 files)



More information about the bittorrent mailing list