[bittorrent] GD 5/29/80 [152534] - AUD - Civic Center - Des Moines, IA 2496 (GEMS)

Automated Mailer noreply-bt.e at etree.org
Thu Jun 3 23:47:25 UTC 2021


Band:           Grateful Dead
Torrent Name:   GD 5/29/80 [152534] - AUD - Civic Center - Des Moines, IA 2496 (GEMS)
Uploaded by:    grv68
DB Link:        
Details:        http://bt.etree.org/details.php?id=612839

Contact the seeder at http://db.etree.org/grv68

If the link to this show does not work, it was probably removed for
being non-trade-friendly.

Description / text file:
-------------------------
Grateful Dead
Thursday May 29, 1980
Des Moines Civic Center
Des Moines, Iowa

Roughly 10th row FOB master audience tapes from an Anonymous Benefactor,
actual gear lost to the fog of memory, transferred at 24 bit 96 kHz

Speed Correction by Jason Chastain
Critical Listening and Track FLAC, Pack by Steven Gravel
Mastering by Jamie Waddell

FLAC Level 8 at 24 bit 96kHz

- this is the first quality recording of this show
- fantastic tape flip in drums space, very little music lost, crossfade applied

originally shared at www.shnflac.net May 2021

Debut broadcast of this fine recording on 91.3 FM KXCI Tucson on Dead Air, May 30, 2021 - hosted by Jim Blackwood and Jamie Waddell. https://spinitron.com/KXCI/pl/13363901/Dead-Air

Set 1:
Alabama Getaway >
Promised Land
They Love Each Other
El Paso >
Mexicali Blues
Candyman
New Minglewood Blues
Althea
Far From Me
Let It Grow >
Deal

Set 2:
Feel Like a Stranger
Ship of Fools
Estimated Prophet >
Eyes of the World >
The Other One Jam >
Drums >
Space >
Lost Sailor >
Saint of Circumstance >
Comes a Time >
Around & Around >
Johnny B. Goode

Encore:
U.S. Blues

**gems**

    length     expanded size    cdr  WAVE problems  fmt   ratio  filename
     5:11.400     179366444 B   cxx   --   ---xx   flac  0.6991  01 - Alabama Getaway.flac
     4:37.400     159782444 B   cxx   --   ---xx   flac  0.6992  02 - Promised Land.flac
     7:46.856     268909034 B   cxx   --   ---xx   flac  0.6865  03 - They Love Each Other.flac
     4:09.437     143676014 B   cxx   --   ---xx   flac  0.6886  04 - El Paso.flac
     4:48.019     165899222 B   cxx   --   ---xx   flac  0.6917  05 - Mexicali Blues.flac
     7:49.476     270417962 B   cxx   --   ---xx   flac  0.6862  06 - Candyman.flac
     7:47.412     269229188 B   cxx   --   ---xx   flac  0.6947  07 - New Minglewood Blues.flac
     9:08.412     315885380 B   cxx   --   ---xx   flac  0.6854  08 - Althea.flac
     4:37.788     160005908 B   cxx   --   ---xx   flac  0.6992  09 - Far From Me.flac
    10:07.649     350005844 B   cxx   --   ---xx   flac  0.6983  10 - Let It Grow.flac
     5:07.351     177034244 B   cxx   --   ---xx   flac  0.6970  11 - Deal.flac
     8:33.199     295602794 B   cxx   --   ---xx   flac  0.7044  12 - Feel Like a Stranger.flac
     9:05.457     314183078 B   cxx   --   ---xx   flac  0.6840  13 - Ship of Fools.flac
    12:11.883     421564790 B   cxx   --   ---xx   flac  0.6956  14 - Estimated Prophet.flac
    10:26.206     360694904 B   cxx   --   ---xx   flac  0.6953  15 - Eyes of the World.flac
     4:23.959     152040626 B   cxx   --   ---xx   flac  0.6959  16 - The Other One Jam.flac
     9:27.815     327061532 B   cxx   --   ---xx   flac  0.6842  17 - Drums.flac
     2:32.378      87769598 B   cxx   --   ---xx   flac  0.7063  18 - Space.flac
     5:45.102     198779018 B   cxx   --   ---xx   flac  0.6918  19 - Lost Sailor.flac
     5:57.360     205839404 B   cxx   --   ---xx   flac  0.7026  20 - Saint of Circumstance.flac
     9:16.908     320779202 B   cxx   --   ---xx   flac  0.6805  21 - Comes a Time.flac
     3:51.297     133227284 B   cxx   --   ---xx   flac  0.7045  22 - Around & Around.flac
     4:24.937     152603666 B   cxx   --   ---xx   flac  0.7101  23 - Johnny B. Goode.flac
     5:24.904     187144598 B   cxx   --   ---xx   flac  0.7133  24 - U.S. Blues.flac
   162:32.606    5617502178 B                            0.6941  (24 files)



More information about the bittorrent mailing list