[bittorrent] Joe Russo's Almost Dead Westville Music Bowl New Haven, Connecticut 5/28/2021 (Schoeps CCM4V'S FOB Fixed)

Automated Mailer noreply-bt.e at etree.org
Thu Jun 3 04:57:39 UTC 2021


Band:           Joe Russo's Almost Dead
Torrent Name:   Joe Russo's Almost Dead Westville Music Bowl New Haven, Connecticut 5/28/2021 (Schoeps CCM4V'S FOB Fixed)
Uploaded by:    zmanatl
DB Link:        
Details:        http://bt.etree.org/details.php?id=612837

Contact the seeder at http://db.etree.org/zmanatl

If the link to this show does not work, it was probably removed for
being non-trade-friendly.

Description / text file:
-------------------------
Joe Russo's Almost Dead
Westville Music Bowl
New Haven, Connecticut
5/28/2021

Source: Schoeps CCM4V'S>Lunatec V2>Sound Devices 722 (24/44.1)
FOB/DFC/KFC/ZFC/AARP Clamped To The Frame Of The Soundboard, 6 1/2' High
DSP: Sound Devices 722>Sound Forge 10.0>CD Wave>flac(16)
ID3 Tagged In Foobar 2000
Recorded By: Z-Man
Seeded By: Z-Man
A Team Dirty South Recording

Disc I 1st Set

01 Greeting/Tuning
02 Not Fade Away >
03 Ruben And Cherise >
04 Terrapin Station Jam >
05 Ruben And Cherise >
06 New Minglewood Blues >
07 Sugaree
08 Jam >
09 The Wheel >
10 Jam >
11 The Wheel >
12 *Jam >
13 Touch Of Grey
14 Band Introductions

Disc II 2nd Set

01 When I PAint My Masterpiece >
02 #Foolish Heart >
03 Help On The Way >
04 @Slipknot! Jam >
05 Hey Bulldog >
06 Slipknot! >
07 Hell In A Bucket
08 Dancin' In The Street >
09 Bass And Drums >
10 Jam >
11 Dancin' In The Street
12 Ripple
13 Band Introductions

Disc III Encore

01 Joe Banter
02 ^Fuckin' Up

* With Cold Rain And Smow And Ruben And Cherise Teasaes
# With Slipknot! Tease
@ With Let It Grow Jam
^ With Chris Harford On Guitar And Vocals

Joe Russo - Drums And Vocals
Scott Metzger - Guitar And Vocals
Tom Hamilton - Guitar And Vocals
Dave Dreiwitz - Bass And Vocals 
Marco Benevento - Keyboard And Vocals

jrad2021-05-28d01t01.flac:eb2eaa988a6c1822470cf8c13cc5f583
jrad2021-05-28d01t02.flac:c190c605c0122634ed4bcac4b7beaa3f
jrad2021-05-28d01t03.flac:e3a0ba2251bde075793a532184c9ab6c
jrad2021-05-28d01t04.flac:b3329b3a3a617cef9e9bc12025d2e2cc
jrad2021-05-28d01t05.flac:34e9ce15a335befda18fe40bae320177
jrad2021-05-28d01t06.flac:325c5a5406024021749061ecc01f82c6
jrad2021-05-28d01t07.flac:dd7b1a748b3cfd61e6a3082c2f835dfa
jrad2021-05-28d01t08.flac:b992b56b04d125f1043eef2ddedabf39
jrad2021-05-28d01t09.flac:65591ebbb0b650778da13ee5b6038daf
jrad2021-05-28d01t10.flac:699e7474c22761d70873c671a1ff5d93
jrad2021-05-28d01t11.flac:e55539be037f3ff4d7056e40aa0aea54
jrad2021-05-28d01t12.flac:558a7aed9ec0814dbe72e02b2c32002b
jrad2021-05-28d01t13.flac:4ed7d3606a68e4bbecfe1a0760972e13
jrad2021-05-28d01t14.flac:d9998c5499407524ea1edc6246ddda95
jrad2021-05-28d02t01.flac:8b2296816d7311b83924b55ddc24e8b2
jrad2021-05-28d02t02.flac:601acc3c3ebbb961e09970d1e6a08d0c
jrad2021-05-28d02t03.flac:cc3c96671ff431a28254e5710756cfe6
jrad2021-05-28d02t04.flac:68cbaa787fe98fe46e54febe64235131
jrad2021-05-28d02t05.flac:f4b5aad9b5c744b24a050fd18133dbb1
jrad2021-05-28d02t06.flac:5196a2228d75c3d66862ea154f4d3329
jrad2021-05-28d02t07.flac:428d503ba60fbc3e1dcbe64ff3256637
jrad2021-05-28d02t08.flac:d68a0dc73aad1a986bb0d40c83a66c92
jrad2021-05-28d02t09.flac:5f847d0cdd0e7a64c9226d6929fb01e4
jrad2021-05-28d02t10.flac:355e704cc4370121c83fc2baee2c05e0
jrad2021-05-28d02t11.flac:019000d42da83ff3bd3debb48a855c07
jrad2021-05-28d02t12.flac:2e27759d2929b58b1b293f89e56df443
jrad2021-05-28d02t13.flac:d3df8d14424a060084005b277d999b98
jrad2021-05-28d03t01.flac:fcd8767e64c231128f10a0938dafda60
jrad2021-05-28d03t02.flac:0346b6c263e36f456dd92339d618e48f

length     expanded size    cdr  WAVE problems  fmt   ratio  filename
     1:55.33       20363660 B   ---   --   ---xx   flac  0.3039  jrad2021-05-28d01t01.flac
    18:30.45      195909884 B   ---   --   ---xx   flac  0.4411  jrad2021-05-28d01t02.flac
     5:15.72       55735388 B   ---   --   ---xx   flac  0.4495  jrad2021-05-28d01t03.flac
     5:58.07       63167708 B   ---   --   ---xx   flac  0.4153  jrad2021-05-28d01t04.flac
     3:18.19       34971932 B   ---   --   ---xx   flac  0.5173  jrad2021-05-28d01t05.flac
     7:43.07       81689708 B   ---   --   ---xx   flac  0.4952  jrad2021-05-28d01t06.flac
    16:37.37      175957868 B   ---   --   ---xx   flac  0.4483  jrad2021-05-28d01t07.flac
     6:24.10       67761164 B   ---   --   ---xx   flac  0.3410  jrad2021-05-28d01t08.flac
     5:03.35       53531564 B   ---   --   ---xx   flac  0.5035  jrad2021-05-28d01t09.flac
     6:24.39       67829372 B   ---   --   ---xx   flac  0.4785  jrad2021-05-28d01t10.flac
     1:04.60       11430764 B   ---   --   ---xx   flac  0.5521  jrad2021-05-28d01t11.flac
     1:56.55       20591804 B   ---   --   ---xx   flac  0.4967  jrad2021-05-28d01t12.flac
     6:30.43       68897180 B   ---   --   ---xx   flac  0.5145  jrad2021-05-28d01t13.flac
     1:07.04       11828252 B   ---   --   ---xx   flac  0.3968  jrad2021-05-28d01t14.flac
     6:32.21       69198236 B   ---   --   ---xx   flac  0.4066  jrad2021-05-28d02t01.flac
    15:07.51      160114796 B   ---   --   ---xx   flac  0.4863  jrad2021-05-28d02t02.flac
     6:12.53       65745500 B   ---   --   ---xx   flac  0.4727  jrad2021-05-28d02t03.flac
     4:09.21       43973036 B   ---   --   ---xx   flac  0.4647  jrad2021-05-28d02t04.flac
     1:36.64       17084972 B   ---   --   ---xx   flac  0.5330  jrad2021-05-28d02t05.flac
     2:31.39       26728172 B   ---   --   ---xx   flac  0.5014  jrad2021-05-28d02t06.flac
    11:10.26      118249196 B   ---   --   ---xx   flac  0.5007  jrad2021-05-28d02t07.flac
    10:36.60      112331564 B   ---   --   ---xx   flac  0.4455  jrad2021-05-28d02t08.flac
     1:14.23       13107740 B   ---   --   ---xx   flac  0.4017  jrad2021-05-28d02t09.flac
     5:10.42       54782828 B   ---   --   ---xx   flac  0.4227  jrad2021-05-28d02t10.flac
     6:21.43       67309580 B   ---   --   ---xx   flac  0.4626  jrad2021-05-28d02t11.flac
     4:49.05       50991404 B   ---   --   ---xx   flac  0.3392  jrad2021-05-28d02t12.flac
     0:45.26        7999196 B   ---   --   ---xx   flac  0.3720  jrad2021-05-28d02t13.flac
     1:17.51       13702796 B   ---   --   ---xx   flac  0.3074  jrad2021-05-28d03t01.flac
    13:59.18      148041980 B   ---   --   ---xx   flac  0.5067  jrad2021-05-28d03t02.flac
   179:25.34     1899027244 B                            0.4575  (29 files)













More information about the bittorrent mailing list