[bittorrent] gd1985-07-14.152561.sbd.cm.miller.t.flac16

Automated Mailer noreply-bt.e at etree.org
Wed Jun 2 02:23:12 UTC 2021


Band:           Grateful Dead
Torrent Name:   gd1985-07-14.152561.sbd.cm.miller.t.flac16
Uploaded by:    norm
DB Link:        
Details:        http://bt.etree.org/details.php?id=612832

Contact the seeder at http://db.etree.org/norm

If the link to this show does not work, it was probably removed for
being non-trade-friendly.

Description / text file:
-------------------------
Grateful Dead - July 14, 1985
County Fairgrounds - Ventura, CA

Recording Info:
SBD > Cassette Master (Sony TC-D5M/TDK MA-R90)

Transfer Info:
Cassette Master (Nakamichi CR-7A) > Tascam DA-3000 (DSF 1-bit/5.6MHz) >
Sound Forge Pro 14 (WAV 24-bit/96k) > Adobe Audition 2020 > Samplitude Pro X6 Suite > FLAC/24
(1 DVD FLAC)

All Transfers and Mastering by Charlie Miller
charliemiller87 at earthlink.net
May 30, 2021

Patch Info:
Neumann KM84i > Cassette Master (shnid=148420) supplies:
Looks Like Rain (0:00 - 0:15)
Eyes Of The World (9:16 - end of track)
Drums (0:00 - 5:20)
Throwing Stones (8:05 - 8:18)

Notes:
-- Thanks to Joani Walker and Paul Scotton for the tapes
-- Thanks to Chris Hecht and Scott Clugston for the patch source
-- Thanks to Joe B. Jones for the pitch correction settings
-- This is 152538 24 -> 16 @ 44.1

Set 1:
01 - Tuning
02 - Hell In A Bucket
03 - They Love Each Other
04 - My Brother Esau
05 - Althea
06 - Cassidy
07 - Big Railroad Blues >
08 - Looks Like Rain >
09 - Might As Well

Set 2:
10 - Tuning
11 - China Cat Sunflower >
12 - I Know You Rider >
13 - Samson And Delilah
14 - Ship Of Fools
15 - Estimated Prophet >
16 - Eyes Of The World >
17 - Drums >
18 - Space >
19 - Truckin' >
20 - Smokestack Lightnin' >
21 - Black Peter >
22 - Throwing Stones >
23 - Not Fade Away

Encore:
24 - Keep Your Day Job


SHNTOOL OUTPUT:
   length     expanded size    cdr  WAVE problems  fmt   ratio  filename
    1:16.03       13413500 B   ---   --   ---xx   flac  0.5098  01 Tuning.flac
    7:38.67       80948828 B   ---   --   ---xx   flac  0.6235  02 Hell In A Bucket.flac
    9:08.23       96721340 B   ---   --   ---xx   flac  0.5993  03 They Love Each Other.flac
    4:55.55       52167404 B   ---   --   ---xx   flac  0.6333  04 My Brother Esau.flac
    9:38.52      102081548 B   ---   --   ---xx   flac  0.5833  05 Althea.flac
    6:11.17       65484428 B   ---   --   ---xx   flac  0.6298  06 Cassidy.flac
    4:36.44       48789932 B   ---   --   ---xx   flac  0.6618  07 Big Railroad Blues.flac
    9:01.38       95521820 B   ---   --   ---xx   flac  0.6058  08 Looks Like Rain.flac
    4:19.39       45779372 B   ---   --   ---xx   flac  0.6666  09 Might As Well.flac
    0:53.20        9396284 B   ---   --   ---xx   flac  0.5064  10 Tuning.flac
    5:49.31       61636556 B   ---   --   ---xx   flac  0.6377  11 China Cat Sunflower.flac
    5:29.22       58087388 B   ---   --   ---xx   flac  0.6483  12 I Know You Rider.flac
    7:56.51       84086396 B   ---   --   ---xx   flac  0.6447  13 Samson And Delilah.flac
    7:42.34       81576812 B   ---   --   ---xx   flac  0.6064  14 Ship Of Fools.flac
   10:27.04      110612252 B   ---   --   ---xx   flac  0.6327  15 Estimated Prophet.flac
    9:28.63      100343420 B   ---   --   ---xx   flac  0.6354  16 Eyes Of The World.flac
    8:37.67       91356428 B   ---   --   ---xx   flac  0.5213  17 Drums.flac
   10:18.00      109015244 B   ---   --   ---xx   flac  0.5510  18 Space.flac
    6:12.67       65778428 B   ---   --   ---xx   flac  0.6521  19 Truckin'.flac
    4:15.73       45153740 B   ---   --   ---xx   flac  0.6141  20 Smokestack Lightning.flac
    7:43.23       81727340 B   ---   --   ---xx   flac  0.6206  21 Black Peter.flac
    9:13.56       97680956 B   ---   --   ---xx   flac  0.6229  22 Throwing Stones.flac
    6:25.38       68003420 B   ---   --   ---xx   flac  0.6183  23 Not Fade Away.flac
    4:15.69       45144332 B   ---   --   ---xx   flac  0.6591  24 Keep Your Day Job.flac
  161:36.56     1710507168 B                            0.6142  (24 files)




More information about the bittorrent mailing list