[bittorrent] gd1978-05-07.152545.aud.petrunis.flac1644

Automated Mailer noreply-bt.e at etree.org
Tue Jun 1 14:03:24 UTC 2021


Band:           Grateful Dead
Torrent Name:   gd1978-05-07.152545.aud.petrunis.flac1644
Uploaded by:    nfagdtrfb
DB Link:        
Details:        http://bt.etree.org/details.php?id=612824

Contact the seeder at http://db.etree.org/nfagdtrfb

If the link to this show does not work, it was probably removed for
being non-trade-friendly.

Description / text file:
-------------------------
GRATEFUL DEAD
RPI Fieldhouse
Troy NY
05-07-1978

s1t01 Jack Straw
s1t02 Dire Wolf
s1t03 take a step back
s1t04 Mexicali Blues >
s1t05 Mama Tried
s1t06 Tennesse Jed
s1t07 It's All Over Now
s1t08 Friend of the Devil
s1t09 Passenger
s1t10 Brown Eyed Women
s1t11 The Music Never Stopped

s2t01 crowd
s2t02 Scarlet Begonias >
s2t03 Fire on the Mountain
s2t04 Estimated Prophet >
s2t05 He's Gone >
s2t06 Drums >
s2t07 Iko Iko >
s2t08 The Other One >
s2t09 Black Peter >
s2t10 Around & Around
s2t11 lost drummers
s2t12 encore U.S. Blues

Source: Stereo mic & recorder (models unknown) > TDK AD-90's 
(normal bias) cassettes. Concert recording by Rich Petrunis.

Transfer: MAC > Nakamichi CR-5A > Edirol FA-66 > Wavelab 2448 > 
R8Brain SRC > CD-Wave > TLH > FLAC 1644 tagged. Transferred by 
Andrew F. 05/2021

Note: The tape is worn-out in spots, but it provides a different 
perspective on the show (from up in the stands?). ID-8763 patches 
were added; JStraw 0:00 > 2:15; IAON 7:31 > 7:35, Scarlet 6:38 > 
7:05, Drums 6:05 > 6:58, and A&A 7:07 through to end of the show. 
With thanks to John and Rich Petrunis for sharing their tapes!

    length     expanded size    cdr  WAVE problems  fmt   ratio  filename
     9:26.60       99983564 B   ---   --   ---xx   flac  0.6667  gd1978-05-07s1t01.flac
     5:32.31       58637756 B   ---   --   ---xx   flac  0.6774  gd1978-05-07s1t02.flac
     3:14.24       34278092 B   ---   --   ---xx   flac  0.6487  gd1978-05-07s1t03.flac
     3:46.49       39981692 B   ---   --   ---xx   flac  0.6778  gd1978-05-07s1t04.flac
     5:03.44       53552732 B   ---   --   ---xx   flac  0.6674  gd1978-05-07s1t05.flac
    10:40.14      112928972 B   ---   --   ---xx   flac  0.6685  gd1978-05-07s1t06.flac
     8:27.02       89439548 B   ---   --   ---xx   flac  0.6762  gd1978-05-07s1t07.flac
    11:28.23      121417340 B   ---   --   ---xx   flac  0.6499  gd1978-05-07s1t08.flac
     7:39.54       81094652 B   ---   --   ---xx   flac  0.6599  gd1978-05-07s1t09.flac
     8:26.03       89265500 B   ---   --   ---xx   flac  0.6404  gd1978-05-07s1t10.flac
     9:20.38       98873420 B   ---   --   ---xx   flac  0.6615  gd1978-05-07s1t11.flac
     2:51.08       30183260 B   ---   --   ---xx   flac  0.6092  gd1978-05-07s2t01.flac
    10:24.60      110214764 B   ---   --   ---xx   flac  0.6586  gd1978-05-07s2t02.flac
    13:37.38      144208220 B   ---   --   ---xx   flac  0.6740  gd1978-05-07s2t03.flac
    11:52.06      125610956 B   ---   --   ---xx   flac  0.6741  gd1978-05-07s2t04.flac
    11:36.49      122889692 B   ---   --   ---xx   flac  0.6647  gd1978-05-07s2t05.flac
    17:57.60      190123964 B   ---   --   ---xx   flac  0.6692  gd1978-05-07s2t06.flac
     8:48.62       93285068 B   ---   --   ---xx   flac  0.6964  gd1978-05-07s2t07.flac
     7:50.02       82912748 B   ---   --   ---xx   flac  0.6780  gd1978-05-07s2t08.flac
    11:41.11      123682316 B   ---   --   ---xx   flac  0.6646  gd1978-05-07s2t09.flac
     8:21.00       88376444 B   ---   --   ---xx   flac  0.6815  gd1978-05-07s2t10.flac
     1:23.32       14716508 B   ---   --   ---xx   flac  0.5827  gd1978-05-07s2t11.flac
     5:43.61       60648716 B   ---   --   ---xx   flac  0.6556  gd1978-05-07s2t12.flac
   195:13.56     2066305924 B                            0.6660  (23 files)

No errors occured.




More information about the bittorrent mailing list