[bittorrent] Magnolia Express Russell Brown's House Atlanta, Georgia 2/26/2021 (Schoeps CCM4V'S FOB)

Automated Mailer noreply-bt.e at etree.org
Sat Feb 27 06:51:06 UTC 2021


Band:           Other
Torrent Name:   Magnolia Express Russell Brown's House Atlanta, Georgia 2/26/2021 (Schoeps CCM4V'S FOB)
Uploaded by:    zmanatl
DB Link:        
Details:        http://bt.etree.org/details.php?id=612087

Contact the seeder at http://db.etree.org/zmanatl

If the link to this show does not work, it was probably removed for
being non-trade-friendly.

Description / text file:
-------------------------
Magnolia Express
Russell Brown's House
Atlanta, Georgia
2/26/2021

Source: Schoeps CCM4V'S>Lunatec V2>Sound Devices 722 (24/44.1)
FOB/DFC/KFC/ZFC/AARP 6' From Stage, 4' High
DSP: Sound Devices 722>Sound Forge 10.0>CD Wave>flac(16)
ID3 Tagged In Foobar 2000
Recorded By: Z-Man
Seeded By: Z-Man
A Team Dirty South Recording

Disc I 

01 Introduction By Z-Man
02 Friend Of The Devil
03 Cardboard Box 
04 Foggy Mountain Breakdown
05 Mama Tried >
06 I Know You Rider
07 Eat My Dust
08 Gentle On My Mind 
09 My Back Door
10 Norwegian Wood
11 Shakedown Street 
12 I Saw The Light

Russell "RB" Brown - Guitar And Vocals  
Scott Balun - Bass And Vocals
Jacques Dolan - Fiddle
Joe Kimsey - BanJo
Carrie Holley - Vocals

magnolia2021-02-26d01t01.flac:91220a8b8ca42b02f2587e291645ecf7
magnolia2021-02-26d01t02.flac:f4c94f84cf2376ef598a00c67deea9f3
magnolia2021-02-26d01t03.flac:8355d1f53b3e4fd8456ffa838b0d69e2
magnolia2021-02-26d01t04.flac:13d26f10639f36a67f4aa7fbe1d51762
magnolia2021-02-26d01t05.flac:e656c07e8cd4ba7fbefa968ce46c4549
magnolia2021-02-26d01t06.flac:7fc79e284494f26553c81e086a6a4ee6
magnolia2021-02-26d01t07.flac:3db24e82474abe5da2ff229184fac04c
magnolia2021-02-26d01t08.flac:52b6aa66b31481ccb5002a7eb70cc2ba
magnolia2021-02-26d01t09.flac:a48a9ed5ad701534ec61708e3d185dbc
magnolia2021-02-26d01t10.flac:fe416aca2fbff726e9d57abe0c58f8c6
magnolia2021-02-26d01t11.flac:834477943e98882e1c04948328e76f40
magnolia2021-02-26d01t12.flac:2742edd2555bca8273197c04513c39b0

 length     expanded size    cdr  WAVE problems  fmt   ratio  filename
     1:28.24       15579692 B   ---   --   ---xx   flac  0.3467  magnolia2021-02-26d01t01.flac
     5:22.09       56822012 B   ---   --   ---xx   flac  0.4990  magnolia2021-02-26d01t02.flac
     9:51.35      104334764 B   ---   --   ---xx   flac  0.4796  magnolia2021-02-26d01t03.flac
     3:31.20       37267484 B   ---   --   ---xx   flac  0.5140  magnolia2021-02-26d01t04.flac
     2:25.33       25655660 B   ---   --   ---xx   flac  0.5261  magnolia2021-02-26d01t05.flac
     4:39.51       49335596 B   ---   --   ---xx   flac  0.5336  magnolia2021-02-26d01t06.flac
     3:52.26       40985996 B   ---   --   ---xx   flac  0.4829  magnolia2021-02-26d01t07.flac
     5:52.19       62137532 B   ---   --   ---xx   flac  0.4894  magnolia2021-02-26d01t08.flac
     3:42.30       39231404 B   ---   --   ---xx   flac  0.4864  magnolia2021-02-26d01t09.flac
     5:05.13       53832620 B   ---   --   ---xx   flac  0.4518  magnolia2021-02-26d01t10.flac
     8:31.00       90140444 B   ---   --   ---xx   flac  0.4924  magnolia2021-02-26d01t11.flac
     4:13.27       44692748 B   ---   --   ---xx   flac  0.5348  magnolia2021-02-26d01t12.flac
    58:34.62      620015952 B                            0.4914  (12 files)





More information about the bittorrent mailing list