[bittorrent] GD1971-02-19 Port Chester SBD Master Reel (Not from the betty board)

Automated Mailer noreply-bt.e at etree.org
Fri Feb 26 20:21:04 UTC 2021


Band:           Grateful Dead
Torrent Name:   GD1971-02-19 Port Chester SBD Master Reel (Not from the betty board)
Uploaded by:    charlie miller
DB Link:        
Details:        http://bt.etree.org/details.php?id=612081

Contact the seeder at http://db.etree.org/charlie miller

If the link to this show does not work, it was probably removed for
being non-trade-friendly.

Description / text file:
-------------------------
Grateful Dead - February 19, 1971
Capitol Theater - Port Chester, NY

Recording Info:
SBD > Master Reel (Sony TC-770/Scotch 7in 1/4 track 7.5ips)

Transfer Info:
Master Reel (Technics RS-1506) > Sony PCM-R500 (pass through) > Sound Forge > CD

Mastering Info:
CD > Samplitude Pro X5 Suite > FLAC/16
(3 Discs Audio / 1 DVD FLAC)

All Transfers and Mastering by Charlie Miller
charliemiller87 at earthlink.net
February 26, 2021

Notes:
-- This is not the Betty board, it comes from a different set of reels
-- Thanks to Digitalrbb for this source

Set 1:
01 - Tuning
02 - The Merry-Go-Round Broke Down
03 - Spring Song
04 - Truckin'
05 - Loser
06 - Cumberland Blues
07 - It Hurts Me Too
08 - Bertha
09 - Playing In The Band
10 - Dark Hollow
11 - Smokestack Lightning
12 - China Cat Sunflower >
13 - I Know You Rider

Set 2:
14 - Tuning
15 - Greatest Story Ever Told >
16 - Johnny B. Goode
17 - Bird Song
18 - Easy Wind
19 - Deal
20 - That's It For The Other One >
21 - Wharf Rat
22 - Good Lovin'
23 - Casey Jones


SHNTOOL OUTPUT:
    length     expanded size    cdr  WAVE problems  fmt   ratio  filename
     1:31.53       16177100 B   ---   --   ---xx   flac  0.4482  01 Tuning.flac
     0:37.38        6616220 B   ---   --   ---xx   flac  0.5186  02 The Merry-Go-Round Broke Down.flac
     0:28.44        5042732 B   ---   --   ---xx   flac  0.5205  03 Spring Song.flac
     9:26.09       99863612 B   ---   --   ---xx   flac  0.5629  04 Truckin'.flac
     7:13.13       76411820 B   ---   --   ---xx   flac  0.5662  05 Loser.flac
     6:40.08       70578860 B   ---   --   ---xx   flac  0.5479  06 Cumberland Blues.flac
     6:14.23       66027740 B   ---   --   ---xx   flac  0.5342  07 It Hurts Me Too.flac
     6:39.20       70430684 B   ---   --   ---xx   flac  0.5703  08 Bertha.flac
     6:57.48       73671740 B   ---   --   ---xx   flac  0.5515  09 Playing In The Band.flac
     3:52.09       40946012 B   ---   --   ---xx   flac  0.5596  10 Dark Hollow.flac
    15:56.55      168767804 B   ---   --   ---xx   flac  0.5631  11 Smokestack Lightning.flac
     5:19.09       56292812 B   ---   --   ---xx   flac  0.5995  12 China Cat Sunflower.flac
     5:09.03       54514700 B   ---   --   ---xx   flac  0.6164  13 I Know You Rider.flac
     3:22.67       35790428 B   ---   --   ---xx   flac  0.4846  14 Tuning.flac
     4:18.09       45532412 B   ---   --   ---xx   flac  0.6038  15 Greatest Story Ever Told.flac
     5:42.13       60359420 B   ---   --   ---xx   flac  0.5746  16 Johnny B Goode.flac
     9:13.19       97593932 B   ---   --   ---xx   flac  0.5348  17 Bird Song.flac
    11:58.67      126812828 B   ---   --   ---xx   flac  0.5523  18 Easy Wind.flac
     6:00.34       63584012 B   ---   --   ---xx   flac  0.5595  19 Deal.flac
    16:16.47      172276988 B   ---   --   ---xx   flac  0.5481  20 That's It For The Other One.flac
     9:07.08       96509660 B   ---   --   ---xx   flac  0.5764  21 Wharf Rat.flac
    18:49.52      199277948 B   ---   --   ---xx   flac  0.5761  22 Good Lovin'.flac
     5:41.46       60260636 B   ---   --   ---xx   flac  0.5809  23 Casey Jones.flac
   166:36.19     1763340100 B                            0.5614  (23 files)




More information about the bittorrent mailing list