[bittorrent] Marc Sommers And Friends The Hunt House Ballroom The Hunt House Marietta, Georgia 2/20/2021 (Schoeps CCM4V'S FOB)

Automated Mailer noreply-bt.e at etree.org
Fri Feb 26 19:30:36 UTC 2021


Band:           Other
Torrent Name:   Marc Sommers And Friends The Hunt House Ballroom The Hunt House Marietta, Georgia 2/20/2021 (Schoeps CCM4V'S FOB)
Uploaded by:    zmanatl
DB Link:        
Details:        http://bt.etree.org/details.php?id=612080

Contact the seeder at http://db.etree.org/zmanatl

If the link to this show does not work, it was probably removed for
being non-trade-friendly.

Description / text file:
-------------------------
Marc Sommers And Friends
The Hunt House Ballroom
The Hunt House
Marietta, Georgia
2/20/2021

Source: Schoeps CCM4V'S>Lunatec V2>Sound Devices 722 (24/44.1)
FOB/DFC/KFC/ZFC/AARP 8' From Stage, 6' High
DSP: Sound Devices 722>Sound Forge 10.0>CD Wave>flac(16)
ID3 Tagged In Foobar 2000
Recorded By: Z-Man
Seeded By: Z-Man
A Team Dirty South Recording

Disc I 1st Set

01 Banter/Tuning
02 Tell It on The Mountain >
03 Family Fool
04 21 Ghosts
05 Mollie McHollander
06 Sloop John B 
07 Sometimes
08 The Thrill Is Gone
09 I Shall Be Released 
10 Highway Song
11 Expiration Day
12 Band Introductions

Disc II 2nd Set

01 Trustafarian Fight Song >
02 Not All Right
03 Banter
04 Around
05 *Motorcucle Mama
06 Angel From Montgomery
07 Band Introductions
08 Stormy Monday

* With Josh Thane On Guitar

Marc Sommers - Electric Guitar And Vocals 
Bobby Lee Rodgers - Bass 
Alan Dingus - Electric Guitar And Vocals
Ryan Marcus - Drums
Bob Newton - Percussion 

marc2021-02-20d01t01.flac:8f76ec9d5b44b99436d30234002609be
marc2021-02-20d01t02.flac:001b507396c06f767f9489aa9f565959
marc2021-02-20d01t03.flac:019868b624c7fd7ae4b2909f5dd69ca0
marc2021-02-20d01t04.flac:e3704fa7f6f95112a504c09083f00d1a
marc2021-02-20d01t05.flac:97b4fa5d245a44c2bd87916f6328970e
marc2021-02-20d01t06.flac:6b3449100649f899fab75d38b40912a4
marc2021-02-20d01t07.flac:ca255d7461d692489e7a0b5494da1bf2
marc2021-02-20d01t08.flac:e13f4b4c133621e4c6a609a076e4a206
marc2021-02-20d01t09.flac:752e4624851830af6351b70f361f557d
marc2021-02-20d01t10.flac:6069319a6f12e1c98e0bc949057a4f96
marc2021-02-20d01t11.flac:dd0c2bab4e4383a7a055cebfc83f1f73
marc2021-02-20d01t12.flac:7085b72936fa9bf1a31682ac9af4198d
marc2021-02-20d02t01.flac:82f96b2a894fa2a32d816d6a672cd1b8
marc2021-02-20d02t02.flac:86d0ba8102f25538642e5b76057b692d
marc2021-02-20d02t03.flac:43cfa72449d840d44262a4c1e3536129
marc2021-02-20d02t04.flac:f95dab80370779b37b0c12010a39024b
marc2021-02-20d02t05.flac:a01f6a198e72ebbed9feffa60a4b9725
marc2021-02-20d02t06.flac:6b71461bd96bd2eb2c3ebdc8f84160e0
marc2021-02-20d02t07.flac:ddb0f03d818201c70b4d46fb037d4411
marc2021-02-20d02t08.flac:5f252b840f822f9d37fac1e7ade828d8

 length     expanded size    cdr  WAVE problems  fmt   ratio  filename
     0:49.39        8735372 B   ---   --   ---xx   flac  0.2704  marc2021-02-20d01t01.flac
     2:45.60       29247164 B   ---   --   ---xx   flac  0.4536  marc2021-02-20d01t02.flac
     3:10.47       33626588 B   ---   --   ---xx   flac  0.4007  marc2021-02-20d01t03.flac
     7:20.57       77750108 B   ---   --   ---xx   flac  0.3815  marc2021-02-20d01t04.flac
     6:43.50       71206844 B   ---   --   ---xx   flac  0.4147  marc2021-02-20d01t05.flac
     6:11.58       65580860 B   ---   --   ---xx   flac  0.4266  marc2021-02-20d01t06.flac
    11:39.01      123305996 B   ---   --   ---xx   flac  0.4423  marc2021-02-20d01t07.flac
     8:30.20       90011084 B   ---   --   ---xx   flac  0.4451  marc2021-02-20d01t08.flac
     6:22.44       67488332 B   ---   --   ---xx   flac  0.4086  marc2021-02-20d01t09.flac
     5:22.45       56906684 B   ---   --   ---xx   flac  0.4157  marc2021-02-20d01t10.flac
     3:51.03       40755500 B   ---   --   ---xx   flac  0.4392  marc2021-02-20d01t11.flac
     1:13.45       12983084 B   ---   --   ---xx   flac  0.3563  marc2021-02-20d01t12.flac
     6:48.35       72053564 B   ---   --   ---xx   flac  0.4491  marc2021-02-20d02t01.flac
     5:11.32       54935708 B   ---   --   ---xx   flac  0.4466  marc2021-02-20d02t02.flac
     2:28.59       26246012 B   ---   --   ---xx   flac  0.2580  marc2021-02-20d02t03.flac
     5:51.30       61987004 B   ---   --   ---xx   flac  0.4468  marc2021-02-20d02t04.flac
     7:42.02       81501548 B   ---   --   ---xx   flac  0.5136  marc2021-02-20d02t05.flac
     6:07.55       64868204 B   ---   --   ---xx   flac  0.4233  marc2021-02-20d02t06.flac
     1:44.50       18463244 B   ---   --   ---xx   flac  0.3171  marc2021-02-20d02t07.flac
     9:14.14       97758572 B   ---   --   ---xx   flac  0.4372  marc2021-02-20d02t08.flac
   109:09.71     1155411472 B                            0.4275  (20 files)


 



More information about the bittorrent mailing list