[bittorrent] Barry Richman Blues Jam The Rusty Barrel Marietta, Georgia 2/25/2021 (Schoeps CCM4V'S FOB)

Automated Mailer noreply-bt.e at etree.org
Fri Feb 26 17:19:03 UTC 2021


Band:           Other
Torrent Name:   Barry Richman Blues Jam The Rusty Barrel Marietta, Georgia 2/25/2021 (Schoeps CCM4V'S FOB)
Uploaded by:    zmanatl
DB Link:        
Details:        http://bt.etree.org/details.php?id=612076

Contact the seeder at http://db.etree.org/zmanatl

If the link to this show does not work, it was probably removed for
being non-trade-friendly.

Description / text file:
-------------------------
Barry Richman Blues Jam
The Rusty Barrel
Marietta, Georgia
2/25/2021

Source: Schoeps CCM4V'S>Lunatec V2>Sound Devices 722 (24/44.1)
FOB/DFC/KFC/ZFC/AARP 6' From Stage, 6 1/2' High
DSP: Sound Devices 722>Sound Forge 10.0>CD Wave>flac(16)
ID3 Tagged In Foobar 2000
Recorded By: Z-Man
Seeded By: Z-Man
A Team Dirty South Recording

Disc I 

01 Greeting By Dana
02 Ain't No Love In The Heart Of The City
03 The Break Up Song 
04 Isn't It A Pity
05 Little Wing
06 The One I Love
07 Band Introductions/Outro

Barry Richman - Guitar  
Dana McCarthy - Bass And Vocals
Charlie Korch - Drums And Vocals

barry2021-02-25d01t01.flac:275b02ac4ca26dc84f22b98d9249966e
barry2021-02-25d01t02.flac:2453d21dc6f11a00e6c5bb7d467d87b5
barry2021-02-25d01t03.flac:93a07ed8a537cba0e7201ee426e44eaf
barry2021-02-25d01t04.flac:448da0081d4b66cda184de34c6c9c3d4
barry2021-02-25d01t05.flac:6e582a1ec88653c3bd5a53fc4954f994
barry2021-02-25d01t06.flac:a6c8d71cf8de7245897e01bc1406d862
barry2021-02-25d01t07.flac:a34b4781bf2c3c737c475c95e2234026
 
length     expanded size    cdr  WAVE problems  fmt   ratio  filename
     1:01.15       10795724 B   ---   --   ---xx   flac  0.2879  barry2021-02-25d01t01.flac
     5:17.28       55984700 B   ---   --   ---xx   flac  0.4746  barry2021-02-25d01t02.flac
     6:07.18       64781180 B   ---   --   ---xx   flac  0.5109  barry2021-02-25d01t03.flac
     5:50.63       61888220 B   ---   --   ---xx   flac  0.4372  barry2021-02-25d01t04.flac
     6:50.33       72401660 B   ---   --   ---xx   flac  0.4265  barry2021-02-25d01t05.flac
     4:05.06       43232156 B   ---   --   ---xx   flac  0.5558  barry2021-02-25d01t06.flac
     1:03.58       11249660 B   ---   --   ---xx   flac  0.3609  barry2021-02-25d01t07.flac
    30:15.71      320333300 B                            0.4645  (7 files)






More information about the bittorrent mailing list