[bittorrent] Bird Dog Jubilee Steady Hand Beer Co. Atlanta, Georgia 2/20/2021 (Schoeps CCM4V'S FOB)

Automated Mailer noreply-bt.e at etree.org
Wed Feb 24 21:14:44 UTC 2021


Band:           Other
Torrent Name:   Bird Dog Jubilee Steady Hand Beer Co. Atlanta, Georgia 2/20/2021 (Schoeps CCM4V'S FOB)
Uploaded by:    zmanatl
DB Link:        
Details:        http://bt.etree.org/details.php?id=612068

Contact the seeder at http://db.etree.org/zmanatl

If the link to this show does not work, it was probably removed for
being non-trade-friendly.

Description / text file:
-------------------------
Bird Dog Jubilee
Steady Hand Beer Co.
Atlanta, Georgia
2/20/2020

Source: Schoeps CCM4V'S>Lunatec V2>Sound Devices 722 (24/44.1)
FOB/DFC/KFC/ZFC/AARP 10' From Stage, 6' High
DSP: Sound Devices 722>Sound Forge 10.0>CD Wave>flac(16)
ID3 Tagged In Foobar 2000
Recorded By: Z-Man
Seeded By: Z-Man
A Team Dirty South Recording

Disc I 1st Set

01 When I'm Gone
02 Whitehouse Road
03 Get Up And Go >
04 Stranglehold 
05 Never Coming Back >
06 Jam >
07 Never Coming Back Reprise
08 I Know You Rider >
09 *Choices >
10 Set Break

Disc II 2nd Set

01 1999 
02 #Under Bridges 
03 Duct Tape James 
04 Wicked Web >
05 Holy Roller
06 Waiting On >
07 #Funky Bitch

* With Free Jam
# With Billy Boyd On Keyboards

RJ Fyfe- Guitar And Vocals
Kyle Denis - Bass And Vocals 
Hayden Wall - Drums And Penny Whistle
DJ Rees - Guitar And Keyboards
Ian Thomas - Percussion And Vocals

bird2021-02-20d01t01.flac:e3bb3c86cf39ee6a93e82d9ca61c40d5
bird2021-02-20d01t02.flac:6097c745f837d91deea66657a9487a56
bird2021-02-20d01t03.flac:cf1d7449cfaf7c05fc9d8c1b4fe422ee
bird2021-02-20d01t04.flac:b8b0ee9cb9cd80554088a072542a8b29
bird2021-02-20d01t05.flac:a6da2627cce6cb82eda7b301d721a173
bird2021-02-20d01t06.flac:32c1bb3551c74b0e6b1f19e2fa17292f
bird2021-02-20d01t07.flac:f7e81107924c82be8e7449a87c2d3e9c
bird2021-02-20d01t08.flac:966800bdd9921bd55777baac2eb30f4d
bird2021-02-20d01t09.flac:9ad3049e52f21e4447aa72ae659050f9
bird2021-02-20d01t10.flac:4b3ef299026c0d420b7123b100d35dc6
bird2021-02-20d02t01.flac:9a827b1974e05ff6cc29f0180a390cf3
bird2021-02-20d02t02.flac:2e3cd300e9ec58e5d445aee7a1c18335
bird2021-02-20d02t03.flac:74e7d8cd802a523735dcef78678d615b
bird2021-02-20d02t04.flac:ffbe50a50d0a46704a5dc7397f9fd7c4
bird2021-02-20d02t05.flac:13d02ceec7210c7eee302d9922103e29
bird2021-02-20d02t06.flac:f220ba3a3dfe3dc645eeecfc631398c0
bird2021-02-20d02t07.flac:f9e34da6e0502c9e3478fbccb552cd15

length     expanded size    cdr  WAVE problems  fmt   ratio  filename
     7:53.12       83465468 B   ---   --   ---xx   flac  0.5076  bird2021-02-20d01t01.flac
     6:33.62       69471068 B   ---   --   ---xx   flac  0.5084  bird2021-02-20d01t02.flac
     4:19.33       45765260 B   ---   --   ---xx   flac  0.5535  bird2021-02-20d01t03.flac
    12:47.49      135414092 B   ---   --   ---xx   flac  0.5399  bird2021-02-20d01t04.flac
     0:00.10          23564 B   --s   --   ---xx   flac  0.6226  bird2021-02-20d01t05.flac
     4:53.16       51722876 B   ---   --   ---xx   flac  0.5235  bird2021-02-20d01t06.flac
    11:07.27      117722348 B   ---   --   ---xx   flac  0.4770  bird2021-02-20d01t07.flac
     7:27.18       78893180 B   ---   --   ---xx   flac  0.4962  bird2021-02-20d01t08.flac
    16:16.62      172312268 B   ---   --   ---xx   flac  0.5257  bird2021-02-20d01t09.flac
     3:19.12       35131868 B   ---   --   ---xx   flac  0.5253  bird2021-02-20d01t10.flac
    17:26.44      184617932 B   ---   --   ---xx   flac  0.5510  bird2021-02-20d02t01.flac
    16:51.23      178394540 B   ---   --   ---xx   flac  0.5490  bird2021-02-20d02t02.flac
    12:42.48      134529740 B   ---   --   ---xx   flac  0.5108  bird2021-02-20d02t03.flac
     7:13.60       76522364 B   ---   --   ---xx   flac  0.5592  bird2021-02-20d02t04.flac
    10:46.42      114053228 B   ---   --   ---xx   flac  0.5295  bird2021-02-20d02t05.flac
     4:59.23       52797740 B   ---   --   ---xx   flac  0.5773  bird2021-02-20d02t06.flac
     8:06.33       85808060 B   ---   --   ---xx   flac  0.5729  bird2021-02-20d02t07.flac
   152:44.49     1616645596 B                            0.5312  (17 files)






More information about the bittorrent mailing list