[bittorrent] Taste Steady Hand Beer Co. Atlanta, Georgia 2/20/2021 (Schoeps CCM4V'S FOB)

Automated Mailer noreply-bt.e at etree.org
Mon Feb 22 22:00:14 UTC 2021


Band:           Other
Torrent Name:   Taste Steady Hand Beer Co. Atlanta, Georgia 2/20/2021 (Schoeps CCM4V'S FOB)
Uploaded by:    zmanatl
DB Link:        
Details:        http://bt.etree.org/details.php?id=612055

Contact the seeder at http://db.etree.org/zmanatl

If the link to this show does not work, it was probably removed for
being non-trade-friendly.

Description / text file:
-------------------------
Taste
Steady Hand Beer Co.
Atlanta, Georgia
2/20/2021

Source: Schoeps CCM4V'S>Lunatec V2>Sound Devices 722 (24/44.1)
FOB/DFC/KFC/ZFC/AARP 10' From Stage, 6' High
DSP: Sound Devices 722>Sound Forge 10.0>CD Wave>flac(16)
ID3 Tagged In Foobar 2000
Recorded By: Z-Man
Seeded By: Z-Man
A Team Dirty South Recording

Disc I 

01 Hoochie Koo
02 Bennie And The Jets >
03 Fire On The Mountain >
04 Bennie And The Jets
05 Boogie On Reggae Woman >
06 Power Of Love >
07 Love And Happiness >
08 Power Of Love >
09 Sand >
10 Jam >
11 I Wanna Be Your Lover >
12 Don't Stop Till You Get Enough 

Tyler Cates - Guitar 
Kip Thomas - Bass And Vocals 
Jack Boyanton - Guitar And Vocals
Tony Erice - Percussion 
Erik Aylesworth - Drums

taste2021-02-19d01t01.flac:832246cd64185913718dd3519fb53147
taste2021-02-19d01t02.flac:0f68e5046075f30dc12730e04677527f
taste2021-02-19d01t03.flac:d52491c08b1137dfabe079ee3cd0739e
taste2021-02-19d01t04.flac:29dea0ba7a554310f498928310ddf900
taste2021-02-19d01t05.flac:ae31bd8903f55e9baecc8a8e50b57199
taste2021-02-19d01t06.flac:ab877f07641c0b31d3c9d9d54c3487bf
taste2021-02-19d01t07.flac:d74b5bd166280f76f656a94a19cc7f89
taste2021-02-19d01t08.flac:d81266205ab7e6c57b3205d52121e4bc
taste2021-02-19d01t09.flac:9e09b3639ac193f7099d2ff1025ae4a6
taste2021-02-19d01t10.flac:3a6af7af90597aa1e072356eb657b4b1
taste2021-02-19d01t11.flac:95bffcbf0b56ae55499d54eafe0e1a99
taste2021-02-19d01t12.flac:adea80fd3c464126befa8db33fc1e9f1

 length     expanded size    cdr  WAVE problems  fmt   ratio  filename
    10:53.36      115273916 B   ---   --   ---xx   flac  0.4649  taste2021-02-19d01t01.flac
     6:57.37       73645868 B   ---   --   ---xx   flac  0.4858  taste2021-02-19d01t02.flac
     5:17.13       55949420 B   ---   --   ---xx   flac  0.4855  taste2021-02-19d01t03.flac
     1:11.17       12564428 B   ---   --   ---xx   flac  0.4613  taste2021-02-19d01t04.flac
     7:20.09       77637212 B   ---   --   ---xx   flac  0.5050  taste2021-02-19d01t05.flac
     1:36.17       16974428 B   ---   --   ---xx   flac  0.5077  taste2021-02-19d01t06.flac
     3:05.59       32772812 B   ---   --   ---xx   flac  0.5240  taste2021-02-19d01t07.flac
     4:35.56       48641756 B   ---   --   ---xx   flac  0.5155  taste2021-02-19d01t08.flac
     6:04.51       64329596 B   ---   --   ---xx   flac  0.5353  taste2021-02-19d01t09.flac
     1:19.67       14093228 B   ---   --   ---xx   flac  0.5589  taste2021-02-19d01t10.flac
     3:39.73       38803340 B   ---   --   ---xx   flac  0.5374  taste2021-02-19d01t11.flac
     9:56.04      105143852 B   ---   --   ---xx   flac  0.5220  taste2021-02-19d01t12.flac
    61:57.64      655829856 B                            0.5039  (12 files)







More information about the bittorrent mailing list