[bittorrent] Marc Somers And Friends The Hunt House Ballroom The Hunt House Marietta, Georgia 2/18/2021 (Schoeps CCM4V'S FOB)

Automated Mailer noreply-bt.e at etree.org
Mon Feb 22 15:59:25 UTC 2021


Band:           Other
Torrent Name:   Marc Somers And Friends The Hunt House Ballroom The Hunt House Marietta, Georgia 2/18/2021 (Schoeps CCM4V'S FOB)
Uploaded by:    zmanatl
DB Link:        
Details:        http://bt.etree.org/details.php?id=612053

Contact the seeder at http://db.etree.org/zmanatl

If the link to this show does not work, it was probably removed for
being non-trade-friendly.

Description / text file:
-------------------------
Marc Somers And Friends
The Hunt House Ballroom
The Hunt House
Marietta, Georgia
2/18/2020

Source: Schoeps CCM4V'S>Lunatec V2>Sound Devices 722 (24/44.1)
FOB/DFC/KFC/ZFC/AARP 10' From Stage, 6 1/2' High
DSP: Sound Devices 722>Sound Forge 10.0>CD Wave>flac(16)
ID3 Tagged In Foobar 2000
Recorded By: Z-Man
Seeded By: Z-Man
A Team Dirty South Recording

Disc I 

01 *Expiration Day
02 *Motorcycle Mama 
03 *TFS
04 *Sometimes
05 Molly McHollander
06 Workin' On The Railroad
07 Not All Right
08 TFS (Full Band)
09 Sometimes (Full Band)
10 Mollie McHollander (Full Band)
11 21 Ghosts (Full Band)

* Marc And Alan Duo

Marc Sommers - Electric Guitar And Vocals 
Bobby Lee Rodgers - Bass 
Alan Dingus - Electric Guitar And Vocals
Ryan Marcus - Drums

marc2021-02-18d01t01.flac:652835b1573d4ead7165a50d3a61d646
marc2021-02-18d01t02.flac:9b861816ede7d871aa2a5894d86cae21
marc2021-02-18d01t03.flac:a491aaa597dec07a1ac33438b869cd92
marc2021-02-18d01t04.flac:c712a6732de1b636563442534055ad8a
marc2021-02-18d01t05.flac:cc46617050b8a64f0d8c4d6c8c7fc183
marc2021-02-18d01t06.flac:b809e5a711ab849c0753a6a6250db0bb
marc2021-02-18d01t07.flac:9ae3bfdf082c7b2c26bac7f313f1f1bb
marc2021-02-18d01t08.flac:a6f22d8cbbc60b92947d7594703b9a36
marc2021-02-18d01t09.flac:87f66bb184227816a2f8f489b1daa823
marc2021-02-18d01t10.flac:9d4ff7c0c5f2748e94ed2db1e1149525
marc2021-02-18d01t11.flac:9a2a8c3f73c3e069f134273eefd7a3c1

length     expanded size    cdr  WAVE problems  fmt   ratio  filename
     3:37.25       38337644 B   ---   --   ---xx   flac  0.3864  marc2021-02-18d01t01.flac
     5:11.58       54996860 B   ---   --   ---xx   flac  0.3893  marc2021-02-18d01t02.flac
     3:34.44       37853132 B   ---   --   ---xx   flac  0.3602  marc2021-02-18d01t03.flac
     4:28.31       47348156 B   ---   --   ---xx   flac  0.3573  marc2021-02-18d01t04.flac
     4:10.28       44165900 B   ---   --   ---xx   flac  0.4240  marc2021-02-18d01t05.flac
     3:38.46       38563436 B   ---   --   ---xx   flac  0.4139  marc2021-02-18d01t06.flac
     3:11.38       33781820 B   ---   --   ---xx   flac  0.3543  marc2021-02-18d01t07.flac
     3:26.52       36460748 B   ---   --   ---xx   flac  0.4458  marc2021-02-18d01t08.flac
     7:55.34       83870012 B   ---   --   ---xx   flac  0.4551  marc2021-02-18d01t09.flac
     5:02.14       53305772 B   ---   --   ---xx   flac  0.4453  marc2021-02-18d01t10.flac
     6:00.28       63569900 B   ---   --   ---xx   flac  0.4505  marc2021-02-18d01t11.flac
    50:17.23      532253380 B                            0.4138  (11 files)






More information about the bittorrent mailing list