[bittorrent] gd1980-08-19.151796.aud.flac1644

Automated Mailer noreply-bt.e at etree.org
Sun Feb 21 17:55:33 UTC 2021


Band:           Grateful Dead
Torrent Name:   gd1980-08-19.151796.aud.flac1644
Uploaded by:    nfagdtrfb
DB Link:        
Details:        http://bt.etree.org/details.php?id=612043

Contact the seeder at http://db.etree.org/nfagdtrfb

If the link to this show does not work, it was probably removed for
being non-trade-friendly.

Description / text file:
-------------------------
GRATEFUL DEAD
Uptown Theatre
Chicago IL
08-19-1980

s1t01 Mississippi Half Step >
s1t02 Franklin's Tower >
s1t03 Minglewood Blues
s1t04 Dire Wolf
s1t05 Cassidy
s1t06 Row Jimmy
s1t07 Me & My Uncle >
s1t08 Big River
s1t09 Althea
s1t10 Easy to Love You
s1t11 Feel Like a Stranger

s2t01 Little Red Rooster >
s2t02 China Cat Sunflower >
s2t03 I Know You Rider >
s2t04 Estimated Prophet >
s2t05 Eyes of the World >
s2t06 Space >
s2t07 Drums >
s2t08 Playin' in the Band >
s2t09 Comes a Time >
s2t10 Playin' in the Band Reprise >
s2t11 Around & Around >
s2t12 Alabama Getaway
s2t13 Encore: Johnny B. Goode

Source: Sennheiser MD-421's (1st row balcony) > TC-D5 > MAC > Low-Gen 
(1st or 2nd) tapes from the collection of Brian Schley.

Transfer: TDK-SA (Set1) & Maxell-XLII (Set2) > Nakamichi CR-5A > Edirol 
FA-66 > Wavelab 2448 > R8Brain SRC > CD-Wave > TLH > FLAC 1644 tagged. 
Transferred by Andrew F. 02/2021

Note: Appears to match ID's 127497 & 131445, in a complete version here. 
ID-8739 patches added to 2nd Set, covering gaps and spots of tape damage.

    length     expanded size    cdr  WAVE problems  fmt   ratio  filename
    10:18.28      109081100 B   ---   --   ---xx   flac  0.6328  gd1980-08-19s1t01.flac
    12:04.59      127852412 B   ---   --   ---xx   flac  0.6192  gd1980-08-19s1t02.flac
     7:51.45       83190284 B   ---   --   ---xx   flac  0.6182  gd1980-08-19s1t03.flac
     3:17.38       34840220 B   ---   --   ---xx   flac  0.6246  gd1980-08-19s1t04.flac
     4:44.66       50252876 B   ---   --   ---xx   flac  0.6375  gd1980-08-19s1t05.flac
    11:28.16      121400876 B   ---   --   ---xx   flac  0.6452  gd1980-08-19s1t06.flac
     3:07.40       33080924 B   ---   --   ---xx   flac  0.6534  gd1980-08-19s1t07.flac
     6:50.28       72389900 B   ---   --   ---xx   flac  0.6535  gd1980-08-19s1t08.flac
     8:32.27       90380348 B   ---   --   ---xx   flac  0.6550  gd1980-08-19s1t09.flac
     4:06.07       43410908 B   ---   --   ---xx   flac  0.6515  gd1980-08-19s1t10.flac
     8:42.30       92151404 B   ---   --   ---xx   flac  0.6427  gd1980-08-19s1t11.flac
     8:30.37       90051068 B   ---   --   ---xx   flac  0.6512  gd1980-08-19s2t01.flac
     5:50.59       61878812 B   ---   --   ---xx   flac  0.6742  gd1980-08-19s2t02.flac
     6:11.49       65559692 B   ---   --   ---xx   flac  0.6556  gd1980-08-19s2t03.flac
     9:58.56      105618956 B   ---   --   ---xx   flac  0.6503  gd1980-08-19s2t04.flac
     8:13.38       87054620 B   ---   --   ---xx   flac  0.6579  gd1980-08-19s2t05.flac
     5:31.54       58515452 B   ---   --   ---xx   flac  0.6289  gd1980-08-19s2t06.flac
    12:53.53      136481900 B   ---   --   ---xx   flac  0.6063  gd1980-08-19s2t07.flac
    10:14.04      108319052 B   ---   --   ---xx   flac  0.6646  gd1980-08-19s2t08.flac
     9:48.08      103742060 B   ---   --   ---xx   flac  0.6370  gd1980-08-19s2t09.flac
     5:48.33       61464860 B   ---   --   ---xx   flac  0.6526  gd1980-08-19s2t10.flac
     4:07.29       43639052 B   ---   --   ---xx   flac  0.6651  gd1980-08-19s2t11.flac
     4:48.44       50906732 B   ---   --   ---xx   flac  0.6732  gd1980-08-19s2t12.flac
     4:35.41       48606476 B   ---   --   ---xx   flac  0.6752  gd1980-08-19s2t13.flac
   177:36.64     1879869984 B                            0.6439  (24 files)

No errors occured.




More information about the bittorrent mailing list