[bittorrent] Barry Richman Blues Jam The Rusty Barrel Marietta, Georgia 2/11/2020 (Schoeps CCM4V'S FOB)

Automated Mailer noreply-bt.e at etree.org
Sat Feb 20 19:15:59 UTC 2021


Band:           Other
Torrent Name:   Barry Richman Blues Jam The Rusty Barrel Marietta, Georgia 2/11/2020 (Schoeps CCM4V'S FOB)
Uploaded by:    zmanatl
DB Link:        
Details:        http://bt.etree.org/details.php?id=612026

Contact the seeder at http://db.etree.org/zmanatl

If the link to this show does not work, it was probably removed for
being non-trade-friendly.

Description / text file:
-------------------------
Barry Richman Blues Jam
The Rusty Barrel
Marietta, Georgia
2/11/2020

Source: Schoeps CCM4V'S>Lunatec V2>Sound Devices 722 (24/44.1)
FOB/DFC/KFC/ZFC/AARP 8' From Stage, 6 1/2' High
DSP: Sound Devices 722>Sound Forge 10.0>CD Wave>flac(16)
ID3 Tagged In Foobar 2000
Recorded By: Z-Man
Seeded By: Z-Man
A Team Dirty South Recording

Disc I 

01 Greeting By Dana
02 You'll Be Sorry, Someday
03 Instrumental
04 You Can Cry
05 Green Light Girl
06 The Letter

Barry Richman - Guitar 
Dana McCarthy - Bass And Vocals 
Charlie Korch - Drums And Vocals

barry2021-02-11d01t01.flac:643be12f239d0be13c45d7cb27935e10
barry2021-02-11d01t02.flac:12e1503acf31ea50836084808ea9b90a
barry2021-02-11d01t03.flac:cda704b707c5e11d79d6334f56edc359
barry2021-02-11d01t04.flac:59443ef0071d6da2167d65da25fa8dea
barry2021-02-11d01t05.flac:c9cb0e599cb0f94c97f617e38d73ced2
barry2021-02-11d01t06.flac:f629fe34e18a24040a8d0b76c8bc3243

length     expanded size    cdr  WAVE problems  fmt   ratio  filename
     0:55.00        9702044 B   ---   --   ---xx   flac  0.3197  barry2021-02-11d01t01.flac
     7:33.03       79916300 B   ---   --   ---xx   flac  0.4863  barry2021-02-11d01t02.flac
     5:47.15       61246124 B   ---   --   ---xx   flac  0.5394  barry2021-02-11d01t03.flac
     6:37.15       70066124 B   ---   --   ---xx   flac  0.4921  barry2021-02-11d01t04.flac
     3:15.74       34572092 B   ---   --   ---xx   flac  0.5853  barry2021-02-11d01t05.flac
     4:59.62       52889468 B   ---   --   ---xx   flac  0.5352  barry2021-02-11d01t06.flac
    29:08.19      308392152 B                            0.5124  (6 files)






More information about the bittorrent mailing list