[bittorrent] Wavetree Barry Richman Blues Jam The Rusty Barrel Marietta, Georgia 2/18/2020 (Schoeps CCM4V'S FOB)

Automated Mailer noreply-bt.e at etree.org
Sat Feb 20 06:03:18 UTC 2021


Band:           Other
Torrent Name:   Wavetree Barry Richman Blues Jam The Rusty Barrel Marietta, Georgia 2/18/2020 (Schoeps CCM4V'S FOB)
Uploaded by:    zmanatl
DB Link:        
Details:        http://bt.etree.org/details.php?id=612016

Contact the seeder at http://db.etree.org/zmanatl

If the link to this show does not work, it was probably removed for
being non-trade-friendly.

Description / text file:
-------------------------
Wavetree
Barry Richman Blues Jam
The Rusty Barrel
Marietta, Georgia
2/18/2020

Source: Schoeps CCM4V'S>Lunatec V2>Sound Devices 722 (24/44.1)
FOB/DFC/KFC/ZFC/AARP 8' From Stage, 6 1/2' High
DSP: Sound Devices 722>Sound Forge 10.0>CD Wave>flac(16)
ID3 Tagged In Foobar 2000
Recorded By: Z-Man
Seeded By: Z-Man
A Team Dirty South Recording

Disc I 

01 Midnight Train
02 Darwin's Deluxe
03 Them Changes
04 Things I Should Have Said
05 Too Much Stuff
06 Cosmic Debris

Barry Richman - Guitar 
George Price - Guitar And Vocals 
Dana McCarthy - Bass And Vocals 
Charlie Korch - Drums And Vocals

wavetree2021-02-18d01t01.flac:a98e722442cd171443d67c4e1a9dce2c
wavetree2021-02-18d01t02.flac:410aed70b2c5ffdb0b16b1902c797876
wavetree2021-02-18d01t03.flac:eb7a7360b1c684cd43eaf0bdcc44e900
wavetree2021-02-18d01t04.flac:a1b99fffbe6264ae346e462450176ba3
wavetree2021-02-18d01t05.flac:92eb130fb3aa5b43ea65139988a2b184
wavetree2021-02-18d01t06.flac:0320c285ec0766aae9f7406181c1b314

length     expanded size    cdr  WAVE problems  fmt   ratio  filename
     8:08.67       86240828 B   ---   --   ---xx   flac  0.5088  wavetree2021-02-18d01t01.flac
     5:15.00       55566044 B   ---   --   ---xx   flac  0.4927  wavetree2021-02-18d01t02.flac
     6:43.63       71237420 B   ---   --   ---xx   flac  0.4963  wavetree2021-02-18d01t03.flac
     8:02.58       85161260 B   ---   --   ---xx   flac  0.4499  wavetree2021-02-18d01t04.flac
     6:05.47       64496588 B   ---   --   ---xx   flac  0.5382  wavetree2021-02-18d01t05.flac
     7:58.10       84342764 B   ---   --   ---xx   flac  0.4707  wavetree2021-02-18d01t06.flac
    42:14.20      447044904 B                            0.4906  (6 files)




More information about the bittorrent mailing list