[bittorrent] gd1979-09-05nak700.wagner.miller.flac.2496

Automated Mailer noreply-bt.e at etree.org
Fri Feb 19 01:35:44 UTC 2021


Band:           Grateful Dead
Torrent Name:   gd1979-09-05nak700.wagner.miller.flac.2496
Uploaded by:    charlie miller
DB Link:        
Details:        http://bt.etree.org/details.php?id=612006

Contact the seeder at http://db.etree.org/charlie miller

If the link to this show does not work, it was probably removed for
being non-trade-friendly.

Description / text file:
-------------------------
Grateful Dead - September 5, 1979
Madison Square Garden - New York, NY

Recording Info:
(FOB/11th Row) Nakamichi CM700 > Cassette Master (Sony TC-158SD/Dolby B)

Transfer Info:
Cassette Master (Nakamichi CR-7A/Dolby B) > Tascam DA-3000 (DSF 1-bit/5.6MHz) >
Sound Forge 13 Pro (WAV 24-bit/96k) > Samplitude Pro X5 Suite > FLAC/24
(1 DVD FLAC)

Patch Info:
Nakamichi CM300/CP1 > Cassette Master (Nakamichi 350) supplies:
Tuning (complete track)
Mississippi Half-Step Uptown Toodeloo (0:00 - 0:07)

All Transfers and Mastering by Charlie Miller
charliemiller87 at earthlink.net
February 18, 2021

Notes:
-- Thanks to Bob Wagner for lending me his masters
-- Bob was patched out of Barry Glassberg all three nights
-- There's a tape flip in Drums that I hid with a crossfade
-- Thanks to Rob Eaton for the patch source

Set 1:
01 - Tuning
02 - Mississippi Half-Step Uptown Toodeloo >
03 - Franklin's Tower
04 - Mama Tried >
05 - Mexicali Blues
06 - Peggy-O
07 - Cassidy
08 - Loser
09 - Promised Land

Set 2:
10 - Tuning
11 - Scarlet Begonias >
12 - Fire On The Mountain
13 - Estimated Prophet >
14 - Eyes Of The World >
15 - Drums >
16 - Space >
17 - Black Peter >
18 - I Need A Miracle >
19 - Bertha >
20 - Good Lovin'

Encore:
21 - Encore Break
22 - U.S. Blues


SHNTOOL OUTPUT:
    length     expanded size    cdr  WAVE problems  fmt   ratio  filename
     0:57.419      33073232 B   cxx   --   ---xx   flac  0.6783  01 Tuning.flac
     8:07.833     280992008 B   cxx   --   ---xx   flac  0.6691  02 Mississippi Half-Step Uptown Toodeloo.flac
    11:15.601     389146256 B   cxx   --   ---xx   flac  0.6706  03 Franklin's Tower.flac
     2:32.775      87998264 B   cxx   --   ---xx   flac  0.6783  04 Mama Tried.flac
     4:34.617     158179706 B   cxx   --   ---xx   flac  0.6793  05 Mexicali Blues.flac
     7:30.060     259234424 B   cxx   --   ---xx   flac  0.6810  06 Peggy-O.flac
     5:33.587     192146036 B   cxx   --   ---xx   flac  0.6792  07 Cassidy.flac
     9:35.084     331248524 B   cxx   --   ---xx   flac  0.6599  08 Loser.flac
     4:40.470     161550578 B   cxx   --   ---xx   flac  0.6733  09 Promised Land.flac
     0:46.992      27067436 B   cxx   --   ---xx   flac  0.6299  10 Tuning.flac
    13:20.815     461269652 B   cxx   --   ---xx   flac  0.6631  11 Scarlet Begonias.flac
    12:50.785     443972378 B   cxx   --   ---xx   flac  0.6638  12 Fire On The Mountain.flac
    12:44.634     440429276 B   cxx   --   ---xx   flac  0.6617  13 Estimated Prophet.flac
    12:05.137     417678812 B   cxx   --   ---xx   flac  0.6721  14 Eyes Of The World.flac
    10:09.645     351155546 B   cxx   --   ---xx   flac  0.6527  15 Drums.flac
    12:54.557     446144870 B   cxx   --   ---xx   flac  0.6545  16 Space.flac
    11:04.329     382653632 B   cxx   --   ---xx   flac  0.6621  17 Black Peter.flac
     5:23.163     186142040 B   cxx   --   ---xx   flac  0.6757  18 I Need A Miracle.flac
     6:19.126     218376836 B   cxx   --   ---xx   flac  0.6763  19 Bertha.flac
     6:35.753     227953784 B   cxx   --   ---xx   flac  0.6674  20 Good Lovin'.flac
     1:26.340      49731644 B   cxx   --   ---xx   flac  0.6474  21 Encore Break.flac
     5:48.813     200916140 B   cxx   --   ---xx   flac  0.6709  22 US Blues.flac
   166:17.535    5747061074 B                            0.6664  (22 files)




More information about the bittorrent mailing list