[bittorrent] The Z-Man's Jam Diane And John Rabson's House Roswell, Georgia 2/15/2020 (Schoeps CCM4V'S FOB)

Automated Mailer noreply-bt.e at etree.org
Thu Feb 18 18:28:56 UTC 2021


Band:           Other
Torrent Name:   The Z-Man's Jam Diane And John Rabson's House Roswell, Georgia 2/15/2020 (Schoeps CCM4V'S FOB)
Uploaded by:    zmanatl
DB Link:        
Details:        http://bt.etree.org/details.php?id=612000

Contact the seeder at http://db.etree.org/zmanatl

If the link to this show does not work, it was probably removed for
being non-trade-friendly.

Description / text file:
-------------------------
The Z-Man's Jam
Diane And John Rabson's House
Roswell, Georgia
2/15/2020

Source: Schoeps CCM4V'S>Lunatec V2>Sound Devices 722 (24/44.1)
FOB/DFC/KFC/ZFC/AARP 8' From Stage, 6 1/2' High
DSP: Sound Devices 722>Sound Forge 10.0>CD Wave>flac(16)
ID3 Tagged In Foobar 2000
Recorded By: Z-Man
Seeded By: Z-Man
A Team Dirty South Recording

Disc I 1st Set

01 Greeting/Introductio By Z-Man
02 Feelin' Alright 
03 House Of The Rising Sun
04 Friend Of The Devil
05 Come Together
06 Down By The River >
07 Breathe >
08 Down By The River
09 Tore Up
10 Comes A Time >
11 Wharf Rat 
12 Comes A Time

Disc II 2nd Set

01 *Aiko-Aiko >
02 #Goin' Down The Road Feelin' Bad >
03 *#Not Fade Away
04 Wild Horses
05 Can't Find My Way Home >
06 Dear Prudence
07 Standin' On The Moon
08 *#@Uncle John's Band 
09 Wish You Were Here
10 #Ripple
11 Band Introductions/Outro

* With David "Cousin Ed" Dyche - Percussion
# With Z-Man On Vocals
@ With Z-Man On Percussion 

Alan Dingus - Guitar And Vocals 
Diane Rabson - Keyboards And Vocals
Mark Michelson - Acoustic Guitar, Harmonica, And Vocals
Malcom Fields - Bass And Vocals 
Bob Evers - Drums 

zmans2021-02-15d01t01.flac:e8447d692ed8885de6ef89318ccfb3dd
zmans2021-02-15d01t02.flac:399697de708e344638d13066aa382ee3
zmans2021-02-15d01t03.flac:f6a6a7ddd00c7c8197410ec21ee0214d
zmans2021-02-15d01t04.flac:e9c8fda6421999d46b11cbee663e1c7c
zmans2021-02-15d01t05.flac:101e470641bb843748204c76cb2c3e7b
zmans2021-02-15d01t06.flac:133562688630eaa5ed974049d73ddfbe
zmans2021-02-15d01t07.flac:ea6728efc0b0a8cbd157133fd9d5a851
zmans2021-02-15d01t08.flac:7c6aed8b2f908c7f59884dac989235aa
zmans2021-02-15d01t09.flac:cca475e527ba97e2acc725d931fb4723
zmans2021-02-15d01t10.flac:27a5762e5f19e5cbe299446857ea32fb
zmans2021-02-15d01t11.flac:b059a9db1d14b889d8223b161154607a
zmans2021-02-15d01t12.flac:b522f09c1cd28bcd3c34f685ffad6556
zmans2021-02-15d02t01.flac:a3bbbff67b3d70b2ce1672e91c6537fb
zmans2021-02-15d02t02.flac:603451c8a118caa562306864eab3faea
zmans2021-02-15d02t03.flac:38058ab41b2c9cb804285137eb32cd8d
zmans2021-02-15d02t04.flac:25a07dfa4db6f143a604bc5be2f3bec6
zmans2021-02-15d02t05.flac:0d89c81808e94f091b3e05df8c20f486
zmans2021-02-15d02t06.flac:a55f7e757fbd9f69cd7bbb271bde75a1
zmans2021-02-15d02t07.flac:e36e5778fd785a82401821c842e04a43
zmans2021-02-15d02t08.flac:b6ccddbea89dc45e23f4deb934ed7c15
zmans2021-02-15d02t09.flac:7df1ca61858fc0384f49747fed79c194
zmans2021-02-15d02t10.flac:8ebc529489b3c21a8a6584518283488f
zmans2021-02-15d02t11.flac:16a0e25ce4ec29e0adb434314ae097af

 length     expanded size    cdr  WAVE problems  fmt   ratio  filename
     0:47.72        8460188 B   ---   --   ---xx   flac  0.3377  zmans2021-02-15d01t01.flac
     9:35.21      101479436 B   ---   --   ---xx   flac  0.4320  zmans2021-02-15d01t02.flac
     4:03.44       42968732 B   ---   --   ---xx   flac  0.4481  zmans2021-02-15d01t03.flac
     4:16.22       45210188 B   ---   --   ---xx   flac  0.4326  zmans2021-02-15d01t04.flac
     6:26.64       68240972 B   ---   --   ---xx   flac  0.4719  zmans2021-02-15d01t05.flac
     6:23.29       67629452 B   ---   --   ---xx   flac  0.4573  zmans2021-02-15d01t06.flac
     5:28.70       58023884 B   ---   --   ---xx   flac  0.4574  zmans2021-02-15d01t07.flac
     3:26.38       36427820 B   ---   --   ---xx   flac  0.4620  zmans2021-02-15d01t08.flac
     4:45.65       50426924 B   ---   --   ---xx   flac  0.5031  zmans2021-02-15d01t09.flac
     8:28.01       89613596 B   ---   --   ---xx   flac  0.3654  zmans2021-02-15d01t10.flac
     4:24.08       46588460 B   ---   --   ---xx   flac  0.4023  zmans2021-02-15d01t11.flac
     4:16.34       45238412 B   ---   --   ---xx   flac  0.4261  zmans2021-02-15d01t12.flac
     6:37.52       70153148 B   ---   --   ---xx   flac  0.5251  zmans2021-02-15d02t01.flac
     4:05.54       43345052 B   ---   --   ---xx   flac  0.5630  zmans2021-02-15d02t02.flac
     2:57.01       31225196 B   ---   --   ---xx   flac  0.4836  zmans2021-02-15d02t03.flac
     6:01.34       63760412 B   ---   --   ---xx   flac  0.4422  zmans2021-02-15d02t04.flac
     5:04.43       53726780 B   ---   --   ---xx   flac  0.4388  zmans2021-02-15d02t05.flac
     5:16.65       55895324 B   ---   --   ---xx   flac  0.4801  zmans2021-02-15d02t06.flac
     5:38.50       59740844 B   ---   --   ---xx   flac  0.4064  zmans2021-02-15d02t07.flac
    10:15.18      108528380 B   ---   --   ---xx   flac  0.5329  zmans2021-02-15d02t08.flac
     4:57.06       52404956 B   ---   --   ---xx   flac  0.4170  zmans2021-02-15d02t09.flac
     4:48.67       50960828 B   ---   --   ---xx   flac  0.4836  zmans2021-02-15d02t10.flac
     1:06.22       11694188 B   ---   --   ---xx   flac  0.3542  zmans2021-02-15d02t11.flac
   119:12.55     1261743172 B                            0.4564  (23 files)






More information about the bittorrent mailing list