[bittorrent] Tyler Neal Band Fat Tuesday From The Earth Brewing Company Roswell, Georgia 2/16/2021 (Schoeps CCM4V'S FOB)

Automated Mailer noreply-bt.e at etree.org
Wed Feb 17 23:32:49 UTC 2021


Band:           Other
Torrent Name:   Tyler Neal Band Fat Tuesday From The Earth Brewing Company Roswell, Georgia 2/16/2021 (Schoeps CCM4V'S FOB)
Uploaded by:    zmanatl
DB Link:        
Details:        http://bt.etree.org/details.php?id=611997

Contact the seeder at http://db.etree.org/zmanatl

If the link to this show does not work, it was probably removed for
being non-trade-friendly.

Description / text file:
-------------------------
Tyler Neal Band
Fat Tuesday
>From The Earth Brewing Company
Roswell, Georgia
2/16/2020

Source: Schoeps CCM4V'S>Lunatec V2>Sound Devices 722 (24/44.1)
FOB/DFC/KFC/ZFC/AARP 10' From Stage, 6 1/2' High
DSP: Sound Devices 722>Sound Forge 10.0>CD Wave>flac(16)
ID3 Tagged In Foobar 2000
Recorded By: Z-Man
Seeded By: Z-Man
A Team Dirty South Recording

Disc I 

01 Bourbon Street Parade
02 Instrumental
03 The Mess Around
04 Hey Pockey Way
05 Tell It Like It Is >
06 Look-Ka Py Py
07 Down Yonder On The Farm

Disc II 

01 Boogie On Reggae Woman
02 I'm Busted
03 Hello My Old Friend
04 After Midnight
05 Nothin' To Lose
06 Put Your Foot On The Rock
07 They All Asked For You
08 Band Introductions/Outro

Tyler Neal - Guitar And Vocals 
Joel Edwards (Barry Richman Band) - Keyboards And Vocals
Brandon Boone (Tedeschi Trucks Band) - Bass 
Tyler "The Falcon" Greenwell (Tedeschi Trucks Band) - Drums 

tyler2021-02-16d01t01.flac:0a285870f1d2a76ba9b5361ab284ac9b
tyler2021-02-16d01t02.flac:cea5f89d6f73211a3d1b63de3a9fd8bc
tyler2021-02-16d01t03.flac:7f02f7d002ad4c4a84f1799d36e4b3df
tyler2021-02-16d01t04.flac:7e05536b46645e3c3d8ff376b0823ff5
tyler2021-02-16d01t05.flac:a90d6c3c1e4334e92b69c50b0c16ebe3
tyler2021-02-16d01t06.flac:c88daab451da449ce2713c403b7b3579
tyler2021-02-16d01t07.flac:2921d4ff98a47375fd0a34676590fea9
tyler2021-02-16d02t01.flac:e139baf8c87d75568f2376b4ad7ce74b
tyler2021-02-16d02t02.flac:4a367f4909bdfd5f874f326b9484f3d8
tyler2021-02-16d02t03.flac:75f293008a56940acdbe800df16f67d7
tyler2021-02-16d02t04.flac:5767c6417c2cf3f05fd57584771f580b
tyler2021-02-16d02t05.flac:ef6cf77030de440704891b7a23cd7f69
tyler2021-02-16d02t06.flac:456dab48890e53fa595478b0cd4e2413
tyler2021-02-16d02t07.flac:d0c615ccc9d589dc85ab0640e8873ef9
tyler2021-02-16d02t08.flac:10048bfc884a656d8479d29021812f9d

length     expanded size    cdr  WAVE problems  fmt   ratio  filename
     8:09.70       86424284 B   ---   --   ---xx   flac  0.4517  tyler2021-02-16d01t01.flac
     6:24.38       67827020 B   ---   --   ---xx   flac  0.4765  tyler2021-02-16d01t02.flac
     5:42.31       60401756 B   ---   --   ---xx   flac  0.5063  tyler2021-02-16d01t03.flac
     8:24.06       88919756 B   ---   --   ---xx   flac  0.4541  tyler2021-02-16d01t04.flac
     5:12.26       55097996 B   ---   --   ---xx   flac  0.4137  tyler2021-02-16d01t05.flac
     5:58.00       63151244 B   ---   --   ---xx   flac  0.5007  tyler2021-02-16d01t06.flac
     5:59.23       63381740 B   ---   --   ---xx   flac  0.4266  tyler2021-02-16d01t07.flac
     6:23.40       67655324 B   ---   --   ---xx   flac  0.4463  tyler2021-02-16d02t01.flac
     5:00.19       52964732 B   ---   --   ---xx   flac  0.4473  tyler2021-02-16d02t02.flac
     5:48.40       61481324 B   ---   --   ---xx   flac  0.4335  tyler2021-02-16d02t03.flac
     7:05.52       75092348 B   ---   --   ---xx   flac  0.4060  tyler2021-02-16d02t04.flac
     5:58.41       63247676 B   ---   --   ---xx   flac  0.5009  tyler2021-02-16d02t05.flac
     6:55.02       73210748 B   ---   --   ---xx   flac  0.4814  tyler2021-02-16d02t06.flac
     6:08.18       64957580 B   ---   --   ---xx   flac  0.4599  tyler2021-02-16d02t07.flac
     1:40.47       17750588 B   ---   --   ---xx   flac  0.3758  tyler2021-02-16d02t08.flac
    90:51.03      961564116 B                            0.4558  (15 files)





More information about the bittorrent mailing list