[bittorrent] Someday Honey Funky Mardi Gras "Mask"erade The Spirit Of The Suwannee Music Park Live Oak, Florida 2/12/2021 (Schoeps CCM4V'S FOB)

Automated Mailer noreply-bt.e at etree.org
Wed Feb 17 10:40:17 UTC 2021


Band:           Other
Torrent Name:   Someday Honey Funky Mardi Gras "Mask"erade The Spirit Of The Suwannee Music Park Live Oak, Florida 2/12/2021 (Schoeps CCM4V'S FOB)
Uploaded by:    zmanatl
DB Link:        
Details:        http://bt.etree.org/details.php?id=611990

Contact the seeder at http://db.etree.org/zmanatl

If the link to this show does not work, it was probably removed for
being non-trade-friendly.

Description / text file:
-------------------------
Someday Honey
Funky Mardi Gras "Mask"erade
The Spirit Of The Suwannee Music Park
Live Oak, Florida
2/12/2021

Source: Schoeps CCM4V'S>Lunatec V2>Sound Devices 722 (24/44.1)
FOB/DFC/KFC/ZFC/AARP Behind The 2nd Row Of Spaces, 6' High
DSP: Sound Devices 722>Sound Forge 10.0>CD Wave>flac(16)
ID3 Tagged In Foobar 2000
Recorded By: Z-Man
Seeded By: Z-Man
A Team Dirty South Recording

Disc I 

01 Greeting/Introduction
02 Someday Honey
03 ?
04 Down By The Sea
05 Cool Cool
06 Skunk Bear
07 ? >
08 ?
09 Walls
10 Jockey Full Of Bourbon
11 Beth Aogal
12 ?
13 Papa Was A Rolling Stone 
14 ? 
Encore:
15 Bring Em Back
16 Forget About Georgia
17 Outro

Kaleigh Baker -  Acoustic Guitar Ad Vocals
Matt Walker - Guitar And Vocals
Maek Cunningham - Upright Bass 
Sammy Farmer - Drums And Vocals

someday2021-02-12d01t01.flac:159e2e6aa93e71fba8e70ffe8a1db50f
someday2021-02-12d01t02.flac:0cb85f6b31cf2176cb064ce6a52ee068
someday2021-02-12d01t03.flac:20d0c0da7ab787e0f970920643279f59
someday2021-02-12d01t04.flac:97598ea3b00dcd0faf8124ba790832b8
someday2021-02-12d01t05.flac:25cea2cd5cacd768fc44523696dbcccd
someday2021-02-12d01t06.flac:8f9186566aad80a8f65045f5bc580a87
someday2021-02-12d01t07.flac:b4aa744f97a4b67e5a042591c2a7fe19
someday2021-02-12d01t08.flac:e9c71c16a6c43cff232c395988efd2cc
someday2021-02-12d01t09.flac:15f4684ba1336b0728dc469d3b109139
someday2021-02-12d01t10.flac:a69d775dc3fe22dfe63e4801408f4f16
someday2021-02-12d01t11.flac:5bbc359b0699c2ffcb1f471481e69564
someday2021-02-12d01t12.flac:19d35f739e021c65d3c0a5b75715cfb4
someday2021-02-12d01t13.flac:20ce71c3bed4bbd11c17f431b1d1021c
someday2021-02-12d01t14.flac:eb995ff5569c2690edefb3535973d9c0
someday2021-02-12d01t15.flac:161c0f3e455fac5a3494f48e5e758da7
someday2021-02-12d01t16.flac:db613b5cddb23d0c598d5954791e51d4
someday2021-02-12d01t17.flac:7a75e54de64506be456403a37496bde6

    length     expanded size    cdr  WAVE problems  fmt   ratio  filename
     1:35.12       16786268 B   ---   --   ---xx   flac  0.2932  someday2021-02-12d01t01.flac
     6:48.47       72081788 B   ---   --   ---xx   flac  0.3918  someday2021-02-12d01t02.flac
     4:41.24       49624892 B   ---   --   ---xx   flac  0.3927  someday2021-02-12d01t03.flac
     3:16.64       34724972 B   ---   --   ---xx   flac  0.3987  someday2021-02-12d01t04.flac
     4:13.25       44688044 B   ---   --   ---xx   flac  0.4232  someday2021-02-12d01t05.flac
     4:55.38       52127420 B   ---   --   ---xx   flac  0.4273  someday2021-02-12d01t06.flac
     3:08.41       33259676 B   ---   --   ---xx   flac  0.3311  someday2021-02-12d01t07.flac
     5:10.25       54742844 B   ---   --   ---xx   flac  0.4514  someday2021-02-12d01t08.flac
     6:11.32       65519708 B   ---   --   ---xx   flac  0.4220  someday2021-02-12d01t09.flac
     4:08.49       43862492 B   ---   --   ---xx   flac  0.4336  someday2021-02-12d01t10.flac
     8:16.00       87494444 B   ---   --   ---xx   flac  0.3432  someday2021-02-12d01t11.flac
     4:27.02       47103548 B   ---   --   ---xx   flac  0.4276  someday2021-02-12d01t12.flac
     6:02.66       64012076 B   ---   --   ---xx   flac  0.4510  someday2021-02-12d01t13.flac
     7:48.22       82606988 B   ---   --   ---xx   flac  0.4291  someday2021-02-12d01t14.flac
     0:19.22        3403388 B   ---   --   ---xx   flac  0.3247  someday2021-02-12d01t15.flac
     6:33.22       69376988 B   ---   --   ---xx   flac  0.3457  someday2021-02-12d01t16.flac
     1:32.60       16369964 B   ---   --   ---xx   flac  0.3500  someday2021-02-12d01t17.flac
    79:09.26      837785500 B                            0.4003  (17 files)







More information about the bittorrent mailing list