[bittorrent] GD-1979-9-6.SonyStereo.ECM.Moskal.t.flac16

Automated Mailer noreply-bt.e at etree.org
Tue Feb 16 19:05:52 UTC 2021


Band:           Grateful Dead
Torrent Name:   GD-1979-9-6.SonyStereo.ECM.Moskal.t.flac16
Uploaded by:    gdplusmore
DB Link:        
Details:        http://bt.etree.org/details.php?id=611981

Contact the seeder at http://db.etree.org/gdplusmore

If the link to this show does not work, it was probably removed for
being non-trade-friendly.

Description / text file:
-------------------------
Grateful Dead
9/6/79
Madison Square Garden
New York, New York

Taper:
Gerry Moskal 
Sony Stereo ECM -->SONY TCD126
Location: PA behind Stage

Transfer:
Gerry Moskal
Master Cassette Transfer->RR ->Cassette
Transfer/Flac Conversion
Brian MandelĀ gdplusmore at aol.com
Cassette Transfer Maxell XL11-S90 Nakamichi BX300->SONY PCM-M10 16bit 44 Wave
CD Wave Editor -> TLP->Flac

Circulation:
02-16-21


Disc 1
1st Set
01 Minglewood Blues
02 Dire Wolf
03 El Paso
04 Brown-Eyed Women
05 It's All Over Now
06 Don't Ease
07 Looks Like Rain
08 Althea
09 Lost Sailor>
10 Saint of Circumstance

Disc 2
2nd Set
11 China Cat Sunflower>
12 I Know You Rider
13 Easy To Love You
14 Ramble On Rose
15 Terrapin>
16 Playing'>
17 Drums>

Disc 3
18 Space>
19 Not Fade Away>
20 Stella Blue>
21 Sugar Magnolia
Encore
22 Johnny B. Goode

GD-1979-9-6.SonyStereo.ECM.Moskal.t.flac16.shntool_len
    length     expanded size    cdr  WAVE problems  fmt   ratio  filename
     6:28.54       68570252 B   ---   --   ---xx   flac  0.5507  \\Mac\Home\Desktop\GD-1979-9-6.SonyStereo.ECM.Moskal.t.flac16\Disc 1\01 New Minglewood Blues.flac
     4:09.45       44029484 B   ---   --   ---xx   flac  0.5629  \\Mac\Home\Desktop\GD-1979-9-6.SonyStereo.ECM.Moskal.t.flac16\Disc 1\02 Dire Wolf.flac
     4:24.32       46644908 B   ---   --   ---xx   flac  0.5535  \\Mac\Home\Desktop\GD-1979-9-6.SonyStereo.ECM.Moskal.t.flac16\Disc 1\03 El Paso.flac
     5:54.36       62530316 B   ---   --   ---xx   flac  0.5556  \\Mac\Home\Desktop\GD-1979-9-6.SonyStereo.ECM.Moskal.t.flac16\Disc 1\04 Brown Eyed Women.flac
     8:12.73       86960540 B   ---   --   ---xx   flac  0.5609  \\Mac\Home\Desktop\GD-1979-9-6.SonyStereo.ECM.Moskal.t.flac16\Disc 1\05 It's All Over Now.flac
     4:28.52       47397548 B   ---   --   ---xx   flac  0.5558  \\Mac\Home\Desktop\GD-1979-9-6.SonyStereo.ECM.Moskal.t.flac16\Disc 1\06 Don't Ease Me In.flac
     8:59.71       95246636 B   ---   --   ---xx   flac  0.5563  \\Mac\Home\Desktop\GD-1979-9-6.SonyStereo.ECM.Moskal.t.flac16\Disc 1\07 Looks Like Rain.flac
     7:38.01       80793596 B   ---   --   ---xx   flac  0.5560  \\Mac\Home\Desktop\GD-1979-9-6.SonyStereo.ECM.Moskal.t.flac16\Disc 1\08 Althea.flac
     6:41.00       70736444 B   ---   --   ---xx   flac  0.5648  \\Mac\Home\Desktop\GD-1979-9-6.SonyStereo.ECM.Moskal.t.flac16\Disc 1\09 Lost Sailor.flac
     7:06.55       75275804 B   ---   --   ---xx   flac  0.5672  \\Mac\Home\Desktop\GD-1979-9-6.SonyStereo.ECM.Moskal.t.flac16\Disc 1\10 Saint Of Circumstance.flac
     8:25.35       89164364 B   ---   --   ---xx   flac  0.5679  \\Mac\Home\Desktop\GD-1979-9-6.SonyStereo.ECM.Moskal.t.flac16\Disc 2\11 China Cat Sunflower.flac
     7:06.61       75289916 B   ---   --   ---xx   flac  0.5759  \\Mac\Home\Desktop\GD-1979-9-6.SonyStereo.ECM.Moskal.t.flac16\Disc 2\12 I Know You Rider.flac
     5:32.73       58736540 B   ---   --   ---xx   flac  0.5657  \\Mac\Home\Desktop\GD-1979-9-6.SonyStereo.ECM.Moskal.t.flac16\Disc 2\13 Easy To Love You.flac
     9:16.36       98163116 B   ---   --   ---xx   flac  0.5708  \\Mac\Home\Desktop\GD-1979-9-6.SonyStereo.ECM.Moskal.t.flac16\Disc 2\14 Ramble On Rose.flac
    13:50.16      146449676 B   ---   --   ---xx   flac  0.5581  \\Mac\Home\Desktop\GD-1979-9-6.SonyStereo.ECM.Moskal.t.flac16\Disc 2\15 Terrapin Station.flac
    19:09.37      202770668 B   ---   --   ---xx   flac  0.5655  \\Mac\Home\Desktop\GD-1979-9-6.SonyStereo.ECM.Moskal.t.flac16\Disc 2\16 Playing In The Band.flac
     7:06.49       75261692 B   ---   --   ---xx   flac  0.5784  \\Mac\Home\Desktop\GD-1979-9-6.SonyStereo.ECM.Moskal.t.flac16\Disc 2\17  Drums.flac
     4:06.74       43568492 B   ---   --   ---xx   flac  0.5622  \\Mac\Home\Desktop\GD-1979-9-6.SonyStereo.ECM.Moskal.t.flac16\Disc 3\18 Space.flac
     7:35.39       80353772 B   ---   --   ---xx   flac  0.5676  \\Mac\Home\Desktop\GD-1979-9-6.SonyStereo.ECM.Moskal.t.flac16\Disc 3\19 Not Fade Away.flac
    12:39.26      133948796 B   ---   --   ---xx   flac  0.5627  \\Mac\Home\Desktop\GD-1979-9-6.SonyStereo.ECM.Moskal.t.flac16\Disc 3\20 Stella Blue.flac
    10:04.61      106689116 B   ---   --   ---xx   flac  0.5828  \\Mac\Home\Desktop\GD-1979-9-6.SonyStereo.ECM.Moskal.t.flac16\Disc 3\21 Sugar Magnolia.flac
     4:29.36       47536316 B   ---   --   ---xx   flac  0.5735  \\Mac\Home\Desktop\GD-1979-9-6.SonyStereo.ECM.Moskal.t.flac16\Disc 3\22 Johnny B. Goode.flac
   173:28.62     1836117992 B                            0.5647  (22 files)




More information about the bittorrent mailing list