[bittorrent] Oteil Burbridge Trio Funky Mardi Gras "Mask"erade The Spirit Of The Suwannee Music Park Live Oak, Florida 12/13/2020 (Scoeps CCM4V'S FOB)

Automated Mailer noreply-bt.e at etree.org
Mon Feb 15 05:03:00 UTC 2021


Band:           Oteil & the Peacemakers
Torrent Name:   Oteil Burbridge Trio Funky Mardi Gras "Mask"erade The Spirit Of The Suwannee Music Park Live Oak, Florida 12/13/2020 (Scoeps CCM4V'S FOB)
Uploaded by:    zmanatl
DB Link:        
Details:        http://bt.etree.org/details.php?id=611969

Contact the seeder at http://db.etree.org/zmanatl

If the link to this show does not work, it was probably removed for
being non-trade-friendly.

Description / text file:
-------------------------
Oteil Burbridge Trio
Funky Mardi Gras "Mask"erade
The Spirit Of The Suwannee Music Park
Live Oak, Florida
12/13/2020

Source: Schoeps CCM4V'S>Lunatec V2>Sound Devices 722 (24/44.1)
FOB/DFC/KFC/ZFC/AARP Behind The 2nd Row Of Spaces, 6' High
DSP: Sound Devices 722>Sound Forge 10.0>CD Wave>flac(16)
ID3 Tagged In Foobar 2000
Recorded By: Z-Man
Seeded By: Z-Man
A Team Dirty South Recording

Disc I 

01 Greeting/Introduction
02 Help On The Way >
03 Slipknot! >
04 Franklin's Tower 
05 Doin' That Rag 
06 Loose Lucy 
07 Believe It Or Not 
08 Bertha
09 *?

Disc II 

01 Tangled Up In Blue
02 Don't Ease Me In
03 Mission In he Rain
04 Deal
05 Lady With A Fan >
06 Terrapin Trasit >
07 At A Siding >
08 Terrapin Flyer >
09 Terrapin Refrain
Encore:
10 Thanks
11 Butter Biscuit
12 Band Introductions/Outro

* Dedicated To Paul Henson Of The Peacemakers

Oteil Burbridge - Bass And Vocals
Tom Guana - Guitar And Vocals
Pete Lavazoli - Drums And Vocals

oteil20212-02-13d01t01.flac:e69e93f839047825ec53b90dd73bacf6
oteil20212-02-13d01t02.flac:3e66cc58e57a28438835ef1c44c5b81b
oteil20212-02-13d01t03.flac:fa6c4772d39ee3687a285787f88fd9c7
oteil20212-02-13d01t04.flac:4df72af0891777ad41393cb5d02ef181
oteil20212-02-13d01t05.flac:029dcefe8ab6a65213a1184a9a7cae72
oteil20212-02-13d01t06.flac:477d43e749cf5198dcf1072a6523ef28
oteil20212-02-13d01t07.flac:cf7e728ca7ac35db71ea1b8e76ce05ec
oteil20212-02-13d01t08.flac:38f923dc9c593ed0fca54c153827a577
oteil20212-02-13d01t09.flac:4c4f6426902cb40c8c7da4aada6ba013
oteil20212-02-13d02t01.flac:c9befd2a83796a3b2e8a1706bd4afecb
oteil20212-02-13d02t02.flac:f19f67c8307f24a8940a722af05aaf38
oteil20212-02-13d02t03.flac:b13ddc1307130b7ef7f6b512aeaae2a5
oteil20212-02-13d02t04.flac:ca0ae8910ec0002b4f0b5cf0b2b497ec
oteil20212-02-13d02t05.flac:deb7dd5138dd35ee2fb4c2fb8ed32cf2
oteil20212-02-13d02t06.flac:da085721040b477bb506cbbfea8bfcf4
oteil20212-02-13d02t07.flac:6a0233c81e5b639c83a8858f3e5fd4bf
oteil20212-02-13d02t08.flac:7d6c8cce23e782ab3d27e6d044f3e455
oteil20212-02-13d02t09.flac:e9bf574c191ef7b95cdb0963b46d8465
oteil20212-02-13d02t10.flac:ae8c4543479364fd1b50ce0d57a6b5f6
oteil20212-02-13d02t11.flac:9d4cda896e412973acce9c441dae2f80
oteil20212-02-13d02t12.flac:2297065b7f998b3d2913bf309f65ca25

 length     expanded size    cdr  WAVE problems  fmt   ratio  filename
     1:54.61       20253116 B   ---   --   ---xx   flac  0.3099  oteil20212-02-13d01t01.flac
     4:59.67       52901228 B   ---   --   ---xx   flac  0.3710  oteil20212-02-13d01t02.flac
     4:48.01       50805596 B   ---   --   ---xx   flac  0.3893  oteil20212-02-13d01t03.flac
     7:12.65       76357724 B   ---   --   ---xx   flac  0.3755  oteil20212-02-13d01t04.flac
     7:27.02       78855548 B   ---   --   ---xx   flac  0.3755  oteil20212-02-13d01t05.flac
     6:10.26       65329196 B   ---   --   ---xx   flac  0.3747  oteil20212-02-13d01t06.flac
     7:45.68       82185980 B   ---   --   ---xx   flac  0.3296  oteil20212-02-13d01t07.flac
     7:24.36       78406316 B   ---   --   ---xx   flac  0.3998  oteil20212-02-13d01t08.flac
     8:49.13       93346220 B   ---   --   ---xx   flac  0.4071  oteil20212-02-13d01t09.flac
    10:26.45      110532284 B   ---   --   ---xx   flac  0.4163  oteil20212-02-13d02t01.flac
     6:24.01       67739996 B   ---   --   ---xx   flac  0.3527  oteil20212-02-13d02t02.flac
     8:30.69       90126332 B   ---   --   ---xx   flac  0.3516  oteil20212-02-13d02t03.flac
     7:30.66       79535276 B   ---   --   ---xx   flac  0.4082  oteil20212-02-13d02t04.flac
     5:18.10       56118764 B   ---   --   ---xx   flac  0.3646  oteil20212-02-13d02t05.flac
     4:31.39       47896172 B   ---   --   ---xx   flac  0.4112  oteil20212-02-13d02t06.flac
     3:01.16       31966076 B   ---   --   ---xx   flac  0.3397  oteil20212-02-13d02t07.flac
     3:08.22       33214988 B   ---   --   ---xx   flac  0.4204  oteil20212-02-13d02t08.flac
     1:28.26       15584396 B   ---   --   ---xx   flac  0.3818  oteil20212-02-13d02t09.flac
     0:39.24        6936092 B   ---   --   ---xx   flac  0.2765  oteil20212-02-13d02t10.flac
     7:19.21       77489036 B   ---   --   ---xx   flac  0.4293  oteil20212-02-13d02t11.flac
     1:48.22       19102988 B   ---   --   ---xx   flac  0.3403  oteil20212-02-13d02t12.flac
   116:39.25     1234683324 B                            0.3819  (21 files)




More information about the bittorrent mailing list