[bittorrent] Dumpstaphunk Funky Mardi Gras "Mask"erade Spirit Of The Suwannee Music Park Live Oak, Florida 2/12/2021 (Schoeps CCM4V'S FOB)

Automated Mailer noreply-bt.e at etree.org
Sat Feb 13 18:25:37 UTC 2021


Band:           Dumpstaphunk
Torrent Name:   Dumpstaphunk Funky Mardi Gras "Mask"erade Spirit Of The Suwannee Music Park Live Oak, Florida 2/12/2021 (Schoeps CCM4V'S FOB)
Uploaded by:    zmanatl
DB Link:        
Details:        http://bt.etree.org/details.php?id=611952

Contact the seeder at http://db.etree.org/zmanatl

If the link to this show does not work, it was probably removed for
being non-trade-friendly.

Description / text file:
-------------------------
Dumpstaphunk
Funky Mardi Gras "Mask"erade
Spirit Of The Suwannee Music Park
Live Oak, Florida
2/12/2021

Source: Schoeps CCM4V'S>Lunatec V2>Sound Devices 722 (24/44.1)
FOB/DFC/KFC/ZFC/AARP 9' From Stage, 6 1/2' High
DSP: Sound Devices 722>Sound Forge 10.0>CD Wave>flac(16)
ID3 Tagged In Foobar 2000
Recorded By: Z-Man
Seeded By: Z-Man
A Team Dirty South Recording

Disc I 

01 Greeting/Introduction 
02 ?
03 Let's Get At It
04 Where Do We Go From Here
05 ?
06 Ivan Banter
07 Backwash
08 I'm Gonna Make It
09 *The World Is A Little Bit Under The Weather

Disc II 

01 ? 
02 Banter
03 Get Up On The Downslope >
04 Everybody's Got A Little Under The Sun
05 Listen To The Truth
06 Justice 
Ebcore:
07 Banter
08 #Shakedown Street 
09 Band Introductions/Thanks/Outro

* With Band Introductions
# With Oteil Burbridge On Bass And Vocals

Ivan Neville - Keyboards And Vocals
Nick Daniels III - Bass And Vocals 
Ian Neville - Guitar
Tony Hall - Guitar, Bass, And Vocals
Ashley Parker - Trumpet
Alex Wasily - Trombone
Deven Trusclair - Drums And Vocals

dumpstaphunk2021-02-12d01t01.flac:9e400abc23f85e981fc0d8edd8a90cef
dumpstaphunk2021-02-12d01t02.flac:5e37bb40812fb7bfdc568862a3d20b46
dumpstaphunk2021-02-12d01t03.flac:59fcb3d38047395006f7f2f22e21dc5e
dumpstaphunk2021-02-12d01t04.flac:c36fc58f021f2bc51ffc2354d9437245
dumpstaphunk2021-02-12d01t05.flac:cff19a763b759383ca0be0b64fab869d
dumpstaphunk2021-02-12d01t06.flac:7ea6c77da29de8ef2c7cee3daf1f38b5
dumpstaphunk2021-02-12d01t07.flac:87676bedb72d7ddbf67c6e4effcfd9bf
dumpstaphunk2021-02-12d01t08.flac:f2992a796d4cf551ad8c6c744dcb10e2
dumpstaphunk2021-02-12d01t09.flac:8664978db44debd67d760928e0339a9d
dumpstaphunk2021-02-12d02t01.flac:50a4143adf48f07ff7475318983ba6fb
dumpstaphunk2021-02-12d02t02.flac:820ffb073b41c305a16c5334c289c834
dumpstaphunk2021-02-12d02t03.flac:2096cb0fcb49a4c0afa0cbb439562679
dumpstaphunk2021-02-12d02t04.flac:aea30d026955285b4572f99d3b329072
dumpstaphunk2021-02-12d02t05.flac:43c902ceb4efbb8161051fa7303486e1
dumpstaphunk2021-02-12d02t06.flac:dd438bd8ac45615f987e500ff61493db
dumpstaphunk2021-02-12d02t07.flac:a205f8d393ae77c2e7a0b3db30c92a3a
dumpstaphunk2021-02-12d02t08.flac:b5172235a55020bf1b6937750cb6e22d
dumpstaphunk2021-02-12d02t09.flac:18193568d862c5e731659ae3ee1f5525

length     expanded size    cdr  WAVE problems  fmt   ratio  filename
     2:56.29       31114652 B   ---   --   ---xx   flac  0.3252  dumpstaphunk2021-02-12d01t01.flac
     8:09.15       86294924 B   ---   --   ---xx   flac  0.4676  dumpstaphunk2021-02-12d01t02.flac
     6:19.69       67017932 B   ---   --   ---xx   flac  0.4395  dumpstaphunk2021-02-12d01t03.flac
     8:31.32       90215708 B   ---   --   ---xx   flac  0.4386  dumpstaphunk2021-02-12d01t04.flac
     8:36.52       91144748 B   ---   --   ---xx   flac  0.4509  dumpstaphunk2021-02-12d01t05.flac
     3:45.28       39755900 B   ---   --   ---xx   flac  0.2822  dumpstaphunk2021-02-12d01t06.flac
     6:14.00       65973644 B   ---   --   ---xx   flac  0.4351  dumpstaphunk2021-02-12d01t07.flac
     6:08.71       65082236 B   ---   --   ---xx   flac  0.4463  dumpstaphunk2021-02-12d01t08.flac
     9:04.10       95985164 B   ---   --   ---xx   flac  0.3916  dumpstaphunk2021-02-12d01t09.flac
     6:26.71       68257436 B   ---   --   ---xx   flac  0.4360  dumpstaphunk2021-02-12d02t01.flac
     2:57.07       31239308 B   ---   --   ---xx   flac  0.2635  dumpstaphunk2021-02-12d02t02.flac
     7:34.66       80240876 B   ---   --   ---xx   flac  0.4131  dumpstaphunk2021-02-12d02t03.flac
     4:04.49       43156892 B   ---   --   ---xx   flac  0.3770  dumpstaphunk2021-02-12d02t04.flac
     6:37.47       70141388 B   ---   --   ---xx   flac  0.3609  dumpstaphunk2021-02-12d02t05.flac
     8:04.07       85394108 B   ---   --   ---xx   flac  0.4280  dumpstaphunk2021-02-12d02t06.flac
     5:22.42       56899628 B   ---   --   ---xx   flac  0.2321  dumpstaphunk2021-02-12d02t07.flac
    19:07.29      202399052 B   ---   --   ---xx   flac  0.3788  dumpstaphunk2021-02-12d02t08.flac
     2:14.05       23649404 B   ---   --   ---xx   flac  0.3122  dumpstaphunk2021-02-12d02t09.flac
   122:15.29     1293963000 B                            0.3970  (18 files)






More information about the bittorrent mailing list