[bittorrent] Jim Johnston Solo Acoustic Stogie's Jazz Lounge St. Augustine, Florida 12/10/2020 (Schoeps CCM4V'S FOB)

Automated Mailer noreply-bt.e at etree.org
Fri Feb 12 07:13:15 UTC 2021


Band:           Other
Torrent Name:   Jim Johnston Solo Acoustic Stogie's Jazz Lounge St. Augustine, Florida 12/10/2020 (Schoeps CCM4V'S FOB)
Uploaded by:    zmanatl
DB Link:        
Details:        http://bt.etree.org/details.php?id=611932

Contact the seeder at http://db.etree.org/zmanatl

If the link to this show does not work, it was probably removed for
being non-trade-friendly.

Description / text file:
-------------------------
Jim Johnston Solo Acoustic
Stogie's Jazz Lounge
St. Augustine, Florida
12/10/2020

Source: Schoeps CCM4V'S>Lunatec V2>Sound Devices 722 (24/44.1)
FOB/DFC/KFC/ZFC/AARP 6' From Stage, 6 1/2' High
DSP: Sound Devices 722>Sound Forge 10.0>CD Wave>flac(16)
ID3 Tagged In Foobar 2000
Recorded By: Z-Man
Seeded By: Z-Man
A Team Dirty South Recording

Disc I 

01 ? 
02 I've Been All Around This World
03 ? >
04 *Come On Up To The House
05 *?
06 That's The Way That The World Goes Round
07 Everybody Knows This Is Nowhere 
08 ?
09 *Makin' Progress
10 Friend Of The Devil
11 Sittin' On Top Of The World
12 She's Gone

* With Stefan Klein On Percussion

jim2020-12-10d01t01.flac:973ccea1ffe5f61de77fb2d83bc2bbec
jim2020-12-10d01t02.flac:af1ffcd60a71a72b23e2dfe87ccd50ac
jim2020-12-10d01t03.flac:2ba647c30283a9491f67eede7d1600d0
jim2020-12-10d01t04.flac:b2f34f4a6bb6070b8c31f05202ea9e7a
jim2020-12-10d01t05.flac:527224b61eda3a3ca8a2ef3d8c822d5f
jim2020-12-10d01t06.flac:769d097a7070c29a602e40e6543ffb3f
jim2020-12-10d01t07.flac:d13e6de8c00a0b33967b89ee79c1b0a8
jim2020-12-10d01t08.flac:cfdd0a91e785069715dd67d9a91b4836
jim2020-12-10d01t09.flac:97a1618d820b9916afa485fa9878e508
jim2020-12-10d01t10.flac:93eb8c8b7793e635c19fdf2a2d43662f
jim2020-12-10d01t11.flac:1bd18dfaa426d814c7291267cd64a349
jim2020-12-10d01t12.flac:f2c1e33ea8279bd8d192c8576cda0643

 length     expanded size    cdr  WAVE problems  fmt   ratio  filename
     1:48.10       19074764 B   ---   --   ---xx   flac  0.3349  jim2020-12-10d01t01.flac
     4:42.10       49768364 B   ---   --   ---xx   flac  0.3708  jim2020-12-10d01t02.flac
     3:27.61       36658316 B   ---   --   ---xx   flac  0.3334  jim2020-12-10d01t03.flac
     5:32.00       58564844 B   ---   --   ---xx   flac  0.3878  jim2020-12-10d01t04.flac
     4:56.28       52280300 B   ---   --   ---xx   flac  0.3366  jim2020-12-10d01t05.flac
     2:45.56       29237756 B   ---   --   ---xx   flac  0.3356  jim2020-12-10d01t06.flac
     3:14.71       34388636 B   ---   --   ---xx   flac  0.3386  jim2020-12-10d01t07.flac
     4:24.41       46666076 B   ---   --   ---xx   flac  0.3036  jim2020-12-10d01t08.flac
     6:44.61       71409116 B   ---   --   ---xx   flac  0.3529  jim2020-12-10d01t09.flac
     3:30.40       37138124 B   ---   --   ---xx   flac  0.3642  jim2020-12-10d01t10.flac
     4:19.01       45689996 B   ---   --   ---xx   flac  0.3987  jim2020-12-10d01t11.flac
     4:57.11       52416716 B   ---   --   ---xx   flac  0.3289  jim2020-12-10d01t12.flac
    50:23.15      533293008 B                            0.3510  (12 files)











More information about the bittorrent mailing list