[bittorrent] The Trees Of Life The Whan Bam Fan Jam St. John's County Fairgrounds St. Augustine, Florida 12/13/2020 (Schoeps CCM4V'S FOB)

Automated Mailer noreply-bt.e at etree.org
Fri Feb 12 04:29:31 UTC 2021


Band:           Other
Torrent Name:   The Trees Of Life The Whan Bam Fan Jam St. John's County Fairgrounds St. Augustine, Florida 12/13/2020 (Schoeps CCM4V'S FOB)
Uploaded by:    zmanatl
DB Link:        
Details:        http://bt.etree.org/details.php?id=611931

Contact the seeder at http://db.etree.org/zmanatl

If the link to this show does not work, it was probably removed for
being non-trade-friendly.

Description / text file:
-------------------------
The Trees Of Life
The Whan Bam Fan Jam
St. John's County Fairgrounds
St. Augustine, Florida
12/13/2020

Source: Schoeps CCM4V'S>Lunatec V2>Sound Devices 722 (24/44.1)
FOB/DFC/KFC/ZFC/AARP 9' From Stage, 6 1/2' High
DSP: Sound Devices 722>Sound Forge 10.0>CD Wave>flac(16)
ID3 Tagged In Foobar 2000
Recorded By: Z-Man
Seeded By: Z-Man
A Team Dirty South Recording

Disc I 

01 Greeting 
02 Little Dove
03 King Of The Mountain
04 Life Is Short
05 Bad Moon' Risin'
06 Dopest Song
07 Phoenix 
08 Real Eyes
09 What I Got >
10 For What It's Worth >
11 Midnight Rider >
12 What I Got
13 My Lullabye 
14 9# Hammer 
15 The Trees Of Life 

thetrees2020-12-13d01t01.flac:0d40bf673efb085438d87329b0600eb1
thetrees2020-12-13d01t02.flac:5754a230fef485c38f47484bd00813d4
thetrees2020-12-13d01t03.flac:6e6acd5b0838d4ada4e26b88f1a3a985
thetrees2020-12-13d01t04.flac:f08fae42bb1f8518180e1603c65b91cb
thetrees2020-12-13d01t05.flac:4dc2b7e411309f2dfd153c3628d1c256
thetrees2020-12-13d01t06.flac:d1a57f8162a0c5b5a090daf1a3b2dc29
thetrees2020-12-13d01t07.flac:9b257282290368fa188cb85f36ed63c7
thetrees2020-12-13d01t08.flac:103a63001cc698b8549c25e08f241504
thetrees2020-12-13d01t09.flac:817e2d0fb770368fb405fbaea8e14cab
thetrees2020-12-13d01t10.flac:e1c6b9ebf82274ab9f8d6f56cd711c74
thetrees2020-12-13d01t11.flac:70804dd05bf1b139b9f2a0efda0fa777
thetrees2020-12-13d01t12.flac:2f2a66e0cda92b2636fbdde5dc908348
thetrees2020-12-13d01t13.flac:4e071b2e18055c797f8652915ffcfed3
thetrees2020-12-13d01t14.flac:3803c434976f76fc2be402f448e50cf3
thetrees2020-12-13d01t15.flac:bd03ac9aba3e6c3a680371d5d478b2b2

  length     expanded size    cdr  WAVE problems  fmt   ratio  filename
     0:26.18        4628780 B   ---   --   ---xx   flac  0.2521  thetrees2020-12-13d01t01.flac
     2:55.36       30954716 B   ---   --   ---xx   flac  0.4549  thetrees2020-12-13d01t02.flac
     6:07.25       64797644 B   ---   --   ---xx   flac  0.4674  thetrees2020-12-13d01t03.flac
     5:00.00       52920044 B   ---   --   ---xx   flac  0.4686  thetrees2020-12-13d01t04.flac
     5:59.00       63327644 B   ---   --   ---xx   flac  0.4320  thetrees2020-12-13d01t05.flac
     4:37.30       48933404 B   ---   --   ---xx   flac  0.4436  thetrees2020-12-13d01t06.flac
     4:52.46       51617036 B   ---   --   ---xx   flac  0.4791  thetrees2020-12-13d01t07.flac
     4:31.08       47823260 B   ---   --   ---xx   flac  0.4378  thetrees2020-12-13d01t08.flac
     3:03.37       32368268 B   ---   --   ---xx   flac  0.4504  thetrees2020-12-13d01t09.flac
     1:46.01       18700796 B   ---   --   ---xx   flac  0.4534  thetrees2020-12-13d01t10.flac
     1:17.44       13686332 B   ---   --   ---xx   flac  0.5311  thetrees2020-12-13d01t11.flac
     0:48.39        8558972 B   ---   --   ---xx   flac  0.3778  thetrees2020-12-13d01t12.flac
     4:20.00       45864044 B   ---   --   ---xx   flac  0.4261  thetrees2020-12-13d01t13.flac
     4:57.45       52496684 B   ---   --   ---xx   flac  0.4716  thetrees2020-12-13d01t14.flac
     6:02.61       64000316 B   ---   --   ---xx   flac  0.3737  thetrees2020-12-13d01t15.flac
    56:45.15      600677940 B                            0.4442  (15 files)
  















More information about the bittorrent mailing list